  0
SECTION
  2
HEADER
  9
$ACADVER
  1
AC1018
  9
$ACADMAINTVER
 70
    39
  9
$DWGCODEPAGE
  3
ANSI_932
  9
$INSBASE
 10
0.0
 20
0.0
 30
0.0
  9
$EXTMIN
 10
-0.7692456890436006
 20
-0.5433197851089063
 30
-0.0000000000000076
  9
$EXTMAX
 10
16820.770303139
 20
11880.54406666419
 30
0.0000000000000076
  9
$LIMMIN
 10
0.0
 20
0.0
  9
$LIMMAX
 10
16820.0
 20
11880.0
  9
$ORTHOMODE
 70
     0
  9
$REGENMODE
 70
     1
  9
$FILLMODE
 70
     1
  9
$QTEXTMODE
 70
     0
  9
$MIRRTEXT
 70
     0
  9
$LTSCALE
 40
20.0
  9
$ATTMODE
 70
     1
  9
$TEXTSIZE
 40
2.5
  9
$TRACEWID
 40
1.0
  9
$TEXTSTYLE
  7
ＭＳ ゴシック
  9
$CLAYER
  8
0
  9
$CELTYPE
  6
ByLayer
  9
$CECOLOR
 62
   256
  9
$CELTSCALE
 40
1.0
  9
$DISPSILH
 70
     0
  9
$DIMSCALE
 40
20.0
  9
$DIMASZ
 40
2.0
  9
$DIMEXO
 40
1.0
  9
$DIMDLI
 40
7.0
  9
$DIMRND
 40
0.0
  9
$DIMDLE
 40
0.0
  9
$DIMEXE
 40
1.0
  9
$DIMTP
 40
0.0
  9
$DIMTM
 40
0.0
  9
$DIMTXT
 40
3.5
  9
$DIMCEN
 40
-1.0
  9
$DIMTSZ
 40
0.0
  9
$DIMTOL
 70
     0
  9
$DIMLIM
 70
     0
  9
$DIMTIH
 70
     0
  9
$DIMTOH
 70
     0
  9
$DIMSE1
 70
     0
  9
$DIMSE2
 70
     0
  9
$DIMTAD
 70
     1
  9
$DIMZIN
 70
     8
  9
$DIMBLK
  1
Open
  9
$DIMASO
 70
     1
  9
$DIMSHO
 70
     1
  9
$DIMPOST
  1

  9
$DIMAPOST
  1

  9
$DIMALT
 70
     0
  9
$DIMALTD
 70
     3
  9
$DIMALTF
 40
0.03937007874016
  9
$DIMLFAC
 40
1.0
  9
$DIMTOFL
 70
     1
  9
$DIMTVP
 40
0.0
  9
$DIMTIX
 70
     1
  9
$DIMSOXD
 70
     0
  9
$DIMSAH
 70
     0
  9
$DIMBLK1
  1

  9
$DIMBLK2
  1

  9
$DIMSTYLE
  2
020
  9
$DIMCLRD
 70
     0
  9
$DIMCLRE
 70
     0
  9
$DIMCLRT
 70
     0
  9
$DIMTFAC
 40
1.0
  9
$DIMGAP
 40
1.0
  9
$DIMJUST
 70
     0
  9
$DIMSD1
 70
     0
  9
$DIMSD2
 70
     0
  9
$DIMTOLJ
 70
     0
  9
$DIMTZIN
 70
     8
  9
$DIMALTZ
 70
     0
  9
$DIMALTTZ
 70
     0
  9
$DIMUPT
 70
     0
  9
$DIMDEC
 70
     0
  9
$DIMTDEC
 70
     0
  9
$DIMALTU
 70
     2
  9
$DIMALTTD
 70
     3
  9
$DIMTXSTY
  7
ＭＳ ゴシック
  9
$DIMAUNIT
 70
     1
  9
$DIMADEC
 70
     4
  9
$DIMALTRND
 40
0.0
  9
$DIMAZIN
 70
     0
  9
$DIMDSEP
 70
    46
  9
$DIMATFIT
 70
     0
  9
$DIMFRAC
 70
     0
  9
$DIMLDRBLK
  1
Open
  9
$DIMLUNIT
 70
     2
  9
$DIMLWD
 70
    -2
  9
$DIMLWE
 70
    -2
  9
$DIMTMOVE
 70
     2
  9
$LUNITS
 70
     2
  9
$LUPREC
 70
     4
  9
$SKETCHINC
 40
1.0
  9
$FILLETRAD
 40
10.0
  9
$AUNITS
 70
     1
  9
$AUPREC
 70
     3
  9
$MENU
  1
.
  9
$ELEVATION
 40
0.0
  9
$PELEVATION
 40
0.0
  9
$THICKNESS
 40
0.0
  9
$LIMCHECK
 70
     0
  9
$CHAMFERA
 40
0.0
  9
$CHAMFERB
 40
0.0
  9
$CHAMFERC
 40
20.0
  9
$CHAMFERD
 40
0.0
  9
$SKPOLY
 70
     0
  9
$TDCREATE
 40
2454986.594408449
  9
$TDUCREATE
 40
2454986.219408449
  9
$TDUPDATE
 40
2455077.871845521
  9
$TDUUPDATE
 40
2455077.496845521
  9
$TDINDWG
 40
0.8849285880
  9
$TDUSRTIMER
 40
0.8849284144
  9
$USRTIMER
 70
     1
  9
$ANGBASE
 50
0.0
  9
$ANGDIR
 70
     0
  9
$PDMODE
 70
     3
  9
$PDSIZE
 40
0.0
  9
$PLINEWID
 40
0.0
  9
$SPLFRAME
 70
     0
  9
$SPLINETYPE
 70
     6
  9
$SPLINESEGS
 70
     8
  9
$HANDSEED
  5
FD6A
  9
$SURFTAB1
 70
     6
  9
$SURFTAB2
 70
     6
  9
$SURFTYPE
 70
     6
  9
$SURFU
 70
     6
  9
$SURFV
 70
     6
  9
$UCSBASE
  2

  9
$UCSNAME
  2

  9
$UCSORG
 10
0.0
 20
0.0
 30
0.0
  9
$UCSXDIR
 10
1.0
 20
0.0
 30
0.0
  9
$UCSYDIR
 10
0.0
 20
1.0
 30
0.0
  9
$UCSORTHOREF
  2

  9
$UCSORTHOVIEW
 70
     0
  9
$UCSORGTOP
 10
0.0
 20
0.0
 30
0.0
  9
$UCSORGBOTTOM
 10
0.0
 20
0.0
 30
0.0
  9
$UCSORGLEFT
 10
0.0
 20
0.0
 30
0.0
  9
$UCSORGRIGHT
 10
0.0
 20
0.0
 30
0.0
  9
$UCSORGFRONT
 10
0.0
 20
0.0
 30
0.0
  9
$UCSORGBACK
 10
0.0
 20
0.0
 30
0.0
  9
$PUCSBASE
  2

  9
$PUCSNAME
  2

  9
$PUCSORG
 10
0.0
 20
0.0
 30
0.0
  9
$PUCSXDIR
 10
1.0
 20
0.0
 30
0.0
  9
$PUCSYDIR
 10
0.0
 20
1.0
 30
0.0
  9
$PUCSORTHOREF
  2

  9
$PUCSORTHOVIEW
 70
     0
  9
$PUCSORGTOP
 10
0.0
 20
0.0
 30
0.0
  9
$PUCSORGBOTTOM
 10
0.0
 20
0.0
 30
0.0
  9
$PUCSORGLEFT
 10
0.0
 20
0.0
 30
0.0
  9
$PUCSORGRIGHT
 10
0.0
 20
0.0
 30
0.0
  9
$PUCSORGFRONT
 10
0.0
 20
0.0
 30
0.0
  9
$PUCSORGBACK
 10
0.0
 20
0.0
 30
0.0
  9
$USERI1
 70
     0
  9
$USERI2
 70
     0
  9
$USERI3
 70
     0
  9
$USERI4
 70
     0
  9
$USERI5
 70
     0
  9
$USERR1
 40
0.0
  9
$USERR2
 40
0.0
  9
$USERR3
 40
0.0
  9
$USERR4
 40
0.0
  9
$USERR5
 40
0.0
  9
$WORLDVIEW
 70
     1
  9
$SHADEDGE
 70
     3
  9
$SHADEDIF
 70
    70
  9
$TILEMODE
 70
     1
  9
$MAXACTVP
 70
    48
  9
$PINSBASE
 10
0.0
 20
0.0
 30
0.0
  9
$PLIMCHECK
 70
     0
  9
$PEXTMIN
 10
1.000000000000000E+20
 20
1.000000000000000E+20
 30
1.000000000000000E+20
  9
$PEXTMAX
 10
-1.000000000000000E+20
 20
-1.000000000000000E+20
 30
-1.000000000000000E+20
  9
$PLIMMIN
 10
0.0
 20
0.0
  9
$PLIMMAX
 10
420.0
 20
297.0
  9
$UNITMODE
 70
     0
  9
$VISRETAIN
 70
     1
  9
$PLINEGEN
 70
     0
  9
$PSLTSCALE
 70
     1
  9
$TREEDEPTH
 70
  3020
  9
$CMLSTYLE
  2
Standard
  9
$CMLJUST
 70
     0
  9
$CMLSCALE
 40
20.0
  9
$PROXYGRAPHICS
 70
     1
  9
$MEASUREMENT
 70
     1
  9
$CELWEIGHT
370
    -1
  9
$ENDCAPS
280
     0
  9
$JOINSTYLE
280
     0
  9
$LWDISPLAY
290
     0
  9
$INSUNITS
 70
     4
  9
$HYPERLINKBASE
  1

  9
$STYLESHEET
  1
cals.ctb
  9
$XEDIT
290
     1
  9
$CEPSNTYPE
380
     0
  9
$PSTYLEMODE
290
     1
  9
$FINGERPRINTGUID
  2
{F5910D6C-C853-4848-9E7F-F7591C28E7A6}
  9
$VERSIONGUID
  2
{39C3264E-73EB-47B9-A89C-1BD51E789DCC}
  9
$EXTNAMES
290
     1
  9
$PSVPSCALE
 40
0.0
  9
$OLESTARTUP
290
     0
  9
$SORTENTS
280
   127
  9
$INDEXCTL
280
     0
  9
$HIDETEXT
280
     0
  9
$XCLIPFRAME
290
     0
  9
$HALOGAP
280
     0
  9
$OBSCOLOR
 70
   257
  9
$OBSLTYPE
280
     0
  9
$INTERSECTIONDISPLAY
280
     0
  9
$INTERSECTIONCOLOR
 70
   257
  9
$DIMASSOC
280
     1
  9
$PROJECTNAME
  1

  0
ENDSEC
  0
SECTION
  2
CLASSES
  0
CLASS
  1
ACDBDICTIONARYWDFLT
  2
AcDbDictionaryWithDefault
  3
ObjectDBX Classes
 90
        0
 91
        1
280
     0
281
     0
  0
CLASS
  1
TABLESTYLE
  2
AcDbTableStyle
  3
ObjectDBX Classes
 90
     2047
 91
        1
280
     0
281
     0
  0
CLASS
  1
DICTIONARYVAR
  2
AcDbDictionaryVar
  3
ObjectDBX Classes
 90
        0
 91
        3
280
     0
281
     0
  0
CLASS
  1
SORTENTSTABLE
  2
AcDbSortentsTable
  3
ObjectDBX Classes
 90
        0
 91
        1
280
     0
281
     0
  0
CLASS
  1
MATERIAL
  2
AcDbMaterial
  3
ObjectDBX Classes
 90
        0
 91
        1
280
     0
281
     0
  0
ENDSEC
  0
SECTION
  2
TABLES
  0
TABLE
  2
VPORT
  5
8
330
0
100
AcDbSymbolTable
 70
     2
  0
VPORT
  5
FD69
330
8
100
AcDbSymbolTableRecord
100
AcDbViewportTableRecord
  2
*Active
 70
     0
 10
0.0
 20
0.0
 11
1.0
 21
1.0
 12
8410.000489561667
 22
5940.000345778412
 13
0.0
 23
0.0
 14
8.0
 24
8.0
 15
8.0
 25
8.0
 16
0.0
 26
0.0
 36
1.0
 17
0.0
 27
0.0
 37
0.0
 40
11977.09686795978
 41
1.628879892037786
 42
50.0
 43
0.0
 44
0.0
 50
0.0
 51
0.0
 71
     0
 72
   100
 73
     1
 74
     3
 75
     0
 76
     0
 77
     0
 78
     0
281
     0
 65
     1
110
0.0
120
0.0
130
0.0
111
1.0
121
0.0
131
0.0
112
0.0
122
1.0
132
0.0
 79
     0
146
0.0
  0
ENDTAB
  0
TABLE
  2
LTYPE
  5
5
330
0
100
AcDbSymbolTable
 70
     2
  0
LTYPE
  5
14
330
5
100
AcDbSymbolTableRecord
100
AcDbLinetypeTableRecord
  2
ByBlock
 70
     0
  3

 72
    65
 73
     0
 40
0.0
  0
LTYPE
  5
15
330
5
100
AcDbSymbolTableRecord
100
AcDbLinetypeTableRecord
  2
ByLayer
 70
     0
  3

 72
    65
 73
     0
 40
0.0
  0
LTYPE
  5
16
330
5
100
AcDbSymbolTableRecord
100
AcDbLinetypeTableRecord
  2
Continuous
 70
     0
  3
Solid line
 72
    65
 73
     0
 40
0.0
  0
LTYPE
  5
444
330
5
100
AcDbSymbolTableRecord
100
AcDbLinetypeTableRecord
  2
HIDDEN2
 70
     0
  3
Hidden (.5x) _ _ _ _ _ _ _ _ _ _ _ _ _ _ _ _ _
 72
    65
 73
     2
 40
4.762499999999999
 49
3.174999999999999
 74
     0
 49
-1.587499999999999
 74
     0
  0
ENDTAB
  0
TABLE
  2
LAYER
  5
2
102
{ACAD_XDICTIONARY
360
1AF
102
}
330
0
100
AcDbSymbolTable
 70
    14
  0
LAYER
  5
10
330
2
100
AcDbSymbolTableRecord
100
AcDbLayerTableRecord
  2
0
 70
     0
 62
     7
  6
Continuous
370
    -3
390
F
  0
LAYER
  5
121
330
2
100
AcDbSymbolTableRecord
100
AcDbLayerTableRecord
  2
Defpoints
 70
     0
 62
     7
  6
Continuous
290
     0
370
    -3
390
F
  0
LAYER
  5
122
330
2
100
AcDbSymbolTableRecord
100
AcDbLayerTableRecord
  2
D-TTL
 70
     0
 62
     2
  6
Continuous
370
    -3
390
F
  0
LAYER
  5
123
330
2
100
AcDbSymbolTableRecord
100
AcDbLayerTableRecord
  2
D-TTL-FRAM
 70
     0
 62
     2
  6
Continuous
370
    -3
390
F
  0
LAYER
  5
124
330
2
100
AcDbSymbolTableRecord
100
AcDbLayerTableRecord
  2
D-TTL-LINE
 70
     0
 62
     7
  6
Continuous
370
    -3
390
F
  0
LAYER
  5
129
330
2
100
AcDbSymbolTableRecord
100
AcDbLayerTableRecord
  2
D-STR-STRn
 70
     0
 62
     1
  6
Continuous
370
    -3
390
F
  0
LAYER
  5
12A
330
2
100
AcDbSymbolTableRecord
100
AcDbLayerTableRecord
  2
D-STR-DIM
 70
     0
 62
     7
  6
Continuous
370
    -3
390
F
  0
LAYER
  5
12B
330
2
100
AcDbSymbolTableRecord
100
AcDbLayerTableRecord
  2
D-STR-TXT
 70
     0
 62
     7
  6
Continuous
370
    -3
390
F
  0
LAYER
  5
1AD
330
2
100
AcDbSymbolTableRecord
100
AcDbLayerTableRecord
  2
D-TTL-TXT
 70
     0
 62
     7
  6
Continuous
370
    -3
390
F
1001
AcAecLayerStandard
1000

1000

  0
LAYER
  5
1F0
330
2
100
AcDbSymbolTableRecord
100
AcDbLayerTableRecord
  2
D-DOC
 70
     0
 62
     7
  6
Continuous
370
    -3
390
F
1001
AcAecLayerStandard
1000

1000

  0
LAYER
  5
277
330
2
100
AcDbSymbolTableRecord
100
AcDbLayerTableRecord
  2
D-MTR
 70
     0
 62
     7
  6
Continuous
370
    -3
390
F
1001
AcAecLayerStandard
1000

1000

  0
LAYER
  5
278
330
2
100
AcDbSymbolTableRecord
100
AcDbLayerTableRecord
  2
D-MTR-FRAM
 70
     0
 62
     7
  6
Continuous
370
    -3
390
F
1001
AcAecLayerStandard
1000

1000

  0
LAYER
  5
27A
330
2
100
AcDbSymbolTableRecord
100
AcDbLayerTableRecord
  2
D-MTR-TXT
 70
     0
 62
     7
  6
Continuous
370
    -3
390
F
1001
AcAecLayerStandard
1000

1000

  0
LAYER
  5
FCDB
330
2
100
AcDbSymbolTableRecord
100
AcDbLayerTableRecord
  2
D-MTR-LINE
 70
     0
 62
     7
  6
Continuous
370
    -3
390
F
1001
AcAecLayerStandard
1000

1000

  0
ENDTAB
  0
TABLE
  2
STYLE
  5
3
330
0
100
AcDbSymbolTable
 70
     3
  0
STYLE
  5
11
330
3
100
AcDbSymbolTableRecord
100
AcDbTextStyleTableRecord
  2
Standard
 70
     0
 40
0.0
 41
1.0
 50
0.0
 71
     0
 42
2.5
  3
txt
  4

  0
STYLE
  5
1F6
330
3
100
AcDbSymbolTableRecord
100
AcDbTextStyleTableRecord
  2
ＭＳ ゴシック
 70
     0
 40
0.0
 41
1.0
 50
0.0
 71
     0
 42
2.5
  3
MS Gothic.ttf
  4

1001
ACAD
1000
MS Gothic
1071
    32817
  0
ENDTAB
  0
TABLE
  2
VIEW
  5
6
330
0
100
AcDbSymbolTable
 70
     0
  0
ENDTAB
  0
TABLE
  2
UCS
  5
7
330
0
100
AcDbSymbolTable
 70
     0
  0
ENDTAB
  0
TABLE
  2
APPID
  5
9
330
0
100
AcDbSymbolTable
 70
     5
  0
APPID
  5
12
330
9
100
AcDbSymbolTableRecord
100
AcDbRegAppTableRecord
  2
ACAD
 70
     0
  0
APPID
  5
1AE
330
9
100
AcDbSymbolTableRecord
100
AcDbRegAppTableRecord
  2
AcAecLayerStandard
 70
     0
  0
APPID
  5
204
330
9
100
AcDbSymbolTableRecord
100
AcDbRegAppTableRecord
  2
ACAD_DSTYLE_DIMTEXT_FILL
 70
     0
  0
APPID
  5
447
330
9
100
AcDbSymbolTableRecord
100
AcDbRegAppTableRecord
  2
ACAD_PSEXT
 70
     0
  0
APPID
  5
D894
330
9
100
AcDbSymbolTableRecord
100
AcDbRegAppTableRecord
  2
SXFTrans.arx
 70
     0
  0
ENDTAB
  0
TABLE
  2
DIMSTYLE
  5
A
330
0
100
AcDbSymbolTable
 70
     3
100
AcDbDimStyleTable
 71
     1
340
AAC8
  0
DIMSTYLE
105
445
330
A
100
AcDbSymbolTableRecord
100
AcDbDimStyleTableRecord
  2
Standard
 70
     0
 41
1.0
 42
0.625
 43
3.75
 44
1.25
 73
     0
 77
     1
 78
     1
140
2.5
141
2.5
143
0.03937007874016
147
0.625
171
     3
172
     1
174
     1
271
     0
272
     0
274
     3
279
     2
283
     0
284
     8
340
11
  0
DIMSTYLE
105
AAC8
102
{ACAD_REACTORS
330
F520
330
F521
330
F522
330
F523
330
F524
330
F52B
330
F57D
330
F57E
330
F53C
330
F541
330
F547
330
F5C4
330
F5C5
102
}
330
A
100
AcDbSymbolTableRecord
100
AcDbDimStyleTableRecord
  2
020
 70
     0
 40
20.0
 41
2.0
 42
1.0
 43
7.0
 44
1.0
 73
     0
 74
     0
 77
     1
 78
     8
140
3.5
141
-1.0
143
0.03937007874016
147
1.0
171
     3
172
     1
174
     1
179
     4
271
     0
272
     0
274
     3
275
     1
279
     2
283
     0
284
     8
289
     0
340
1F6
341
144
342
144
  0
ENDTAB
  0
TABLE
  2
BLOCK_RECORD
  5
1
330
0
100
AcDbSymbolTable
 70
    11
  0
BLOCK_RECORD
  5
1F
102
{ACAD_XDICTIONARY
360
A4
102
}
330
1
100
AcDbSymbolTableRecord
100
AcDbBlockTableRecord
  2
*Model_Space
340
22
  0
BLOCK_RECORD
  5
1B
102
{ACAD_XDICTIONARY
360
A6
102
}
330
1
100
AcDbSymbolTableRecord
100
AcDbBlockTableRecord
  2
*Paper_Space
340
1E
  0
BLOCK_RECORD
  5
144
330
1
100
AcDbSymbolTableRecord
100
AcDbBlockTableRecord
  2
_Open
340
0
102
{BLKREFS
331
FBEB
331
FBEC
331
FBF4
331
FBF5
331
FBFD
331
FBFE
331
FC08
331
FC09
331
FC11
331
FC12
331
FC1A
331
FC1B
331
FC23
331
FC24
331
FC2C
331
FC2D
102
}
  0
BLOCK_RECORD
  5
F5D7
330
1
100
AcDbSymbolTableRecord
100
AcDbBlockTableRecord
  2
*D1
340
0
  0
BLOCK_RECORD
  5
F5E5
330
1
100
AcDbSymbolTableRecord
100
AcDbBlockTableRecord
  2
*D2
340
0
  0
BLOCK_RECORD
  5
F5F1
330
1
100
AcDbSymbolTableRecord
100
AcDbBlockTableRecord
  2
*D3
340
0
  0
BLOCK_RECORD
  5
F5FD
330
1
100
AcDbSymbolTableRecord
100
AcDbBlockTableRecord
  2
*D4
340
0
  0
BLOCK_RECORD
  5
F60B
330
1
100
AcDbSymbolTableRecord
100
AcDbBlockTableRecord
  2
*D5
340
0
  0
BLOCK_RECORD
  5
F617
330
1
100
AcDbSymbolTableRecord
100
AcDbBlockTableRecord
  2
*D6
340
0
  0
BLOCK_RECORD
  5
F623
330
1
100
AcDbSymbolTableRecord
100
AcDbBlockTableRecord
  2
*D7
340
0
  0
BLOCK_RECORD
  5
F62F
330
1
100
AcDbSymbolTableRecord
100
AcDbBlockTableRecord
  2
*D8
340
0
  0
BLOCK_RECORD
  5
FD37
330
1
100
AcDbSymbolTableRecord
100
AcDbBlockTableRecord
  2
T-D
340
0
310
2800000020000000200000000100080000000000000400000000000000000000000000000000000000000000000080000080000000808000800000008000800080800000C0C0C000C0DCC000F0CAA6000020400000206000002080000020A0000020C0000020E00000400000004020000040400000406000004080000040A0
310
000040C0000040E00000600000006020000060400000606000006080000060A0000060C0000060E00000800000008020000080400000806000008080000080A0000080C0000080E00000A0000000A0200000A0400000A0600000A0800000A0A00000A0C00000A0E00000C0000000C0200000C0400000C0600000C0800000C0
310
A00000C0C00000C0E00000E0000000E0200000E0400000E0600000E0800000E0A00000E0C00000E0E00040000000400020004000400040006000400080004000A0004000C0004000E00040200000402020004020400040206000402080004020A0004020C0004020E000404000004040200040404000404060004040800040
310
40A0004040C0004040E00040600000406020004060400040606000406080004060A0004060C0004060E00040800000408020004080400040806000408080004080A0004080C0004080E00040A0000040A0200040A0400040A0600040A0800040A0A00040A0C00040A0E00040C0000040C0200040C0400040C0600040C08000
310
40C0A00040C0C00040C0E00040E0000040E0200040E0400040E0600040E0800040E0A00040E0C00040E0E00080000000800020008000400080006000800080008000A0008000C0008000E00080200000802020008020400080206000802080008020A0008020C0008020E00080400000804020008040400080406000804080
310
008040A0008040C0008040E00080600000806020008060400080606000806080008060A0008060C0008060E00080800000808020008080400080806000808080008080A0008080C0008080E00080A0000080A0200080A0400080A0600080A0800080A0A00080A0C00080A0E00080C0000080C0200080C0400080C0600080C0
310
800080C0A00080C0C00080C0E00080E0000080E0200080E0400080E0600080E0800080E0A00080E0C00080E0E000C0000000C0002000C0004000C0006000C0008000C000A000C000C000C000E000C0200000C0202000C0204000C0206000C0208000C020A000C020C000C020E000C0400000C0402000C0404000C0406000C0
310
408000C040A000C040C000C040E000C0600000C0602000C0604000C0606000C0608000C060A000C060C000C060E000C0800000C0802000C0804000C0806000C0808000C080A000C080C000C080E000C0A00000C0A02000C0A04000C0A06000C0A08000C0A0A000C0A0C000C0A0E000C0C00000C0C02000C0C04000C0C06000
310
C0C08000C0C0A000F0FBFF00A4A0A000808080000000FF0000FF000000FFFF00FF000000FF00FF00FFFF0000FFFFFF0000000000000000000000000000000000000000000000000000000000000000000000000000000000000000000000000000000000000000000000000000000000000000000000000000000000000000
310
00000000000000000000000000000000000000000000000000000000000000000000000000000000000000000000000000000000000000000000000000000000000000000000000000000000000000000000000000000000000000000000000000000000000000000000000000000000000000000000000000000000000000
310
0000000000000000000000000000000000000000000000000000000000000000000000000000000000000000000000000000000000000000000000000000000000000000000000000000000000000000000000FFFFFFFFFFFFFFFFFFFFFFFFFFFFFFFFFFFFFFFFFFFFFFFFFFFFFFFFFFFF0000FFFF0000FF00000000000000
310
0000000000000000000000000000FF0000FF0000FFFF0000FF000000000000000000000000000000000000000000FF0000FF0000FFFF0000FF000000000000000000000000000000000000000000FF0000FF0000FFFF0000FF000000000000000000000000000000000000000000FF0000FF0000FFFF0000FF000000000000
310
000000000000000000000000000000FF0000FF0000FFFF0000FF000000000000FFFFFFFFFFFFFFFFFFFFFFFFFFFFFFFFFFFFFF000000FF0000FF0000000000FF000000000000000000000000000000000000000000FFFF0000FF00000000FF00000000000000000000000000000000000000000000FFFF0000FF000000FF00
310
00000000000000000000000000000000000000000000FFFF0000FF0000FF000000000000000000000000000000000000000000000000FFFF0000FF00FF00000000000000000000000000000000000000000000000000FFFF0000FFFF0000000000000000000000000000000000000000000000000000FFFFFFFFFF00000000
310
00000000000000000000000000000000000000000000000000000000000000000000000000000000000000000000000000000000000000000000000000000000000000000000000000000000000000000000000000000000000000000000000000000000000000000000000000000000000000000000000000000000000000
310
00000000000000000000000000000000000000000000000000000000000000000000000000000000000000000000000000000000000000000000000000000000000000000000000000000000000000000000000000000000000000000000000000000000000000000000000000000000000000000000000000000000000000
310
0000000000000000000000000000000000000000000000000000000000000000000000000000000000000000000000000000000000000000
102
{BLKREFS
331
FD4F
331
FD50
331
FD51
331
FD52
331
FD53
331
FD54
102
}
1001
ACAD
1000
DesignCenter Data
1002
{
1070
     1
1070
     4
1002
}
  0
ENDTAB
  0
ENDSEC
  0
SECTION
  2
BLOCKS
  0
BLOCK
  5
20
330
1F
100
AcDbEntity
  8
0
100
AcDbBlockBegin
  2
*Model_Space
 70
     0
 10
0.0
 20
0.0
 30
0.0
  3
*Model_Space
  1

  0
ENDBLK
  5
21
330
1F
100
AcDbEntity
  8
0
100
AcDbBlockEnd
  0
BLOCK
  5
1C
330
1B
100
AcDbEntity
 67
     1
  8
0
100
AcDbBlockBegin
  2
*Paper_Space
 70
     0
 10
0.0
 20
0.0
 30
0.0
  3
*Paper_Space
  1

  0
ENDBLK
  5
1D
330
1B
100
AcDbEntity
 67
     1
  8
0
100
AcDbBlockEnd
  0
BLOCK
  5
148
330
144
100
AcDbEntity
  8
0
100
AcDbBlockBegin
  2
_Open
 70
     0
 10
0.0
 20
0.0
 30
0.0
  3
_Open
  1

  0
LINE
  5
145
330
144
100
AcDbEntity
  8
0
 62
     0
370
    -2
100
AcDbLine
 10
-1.0
 20
0.1666666666666666
 30
0.0
 11
0.0
 21
0.0
 31
0.0
  0
LINE
  5
146
330
144
100
AcDbEntity
  8
0
 62
     0
370
    -2
100
AcDbLine
 10
-1.0
 20
-0.1666666666666666
 30
0.0
 11
0.0
 21
0.0
 31
0.0
  0
LINE
  5
147
330
144
100
AcDbEntity
  8
0
 62
     0
370
    -2
100
AcDbLine
 10
0.0
 20
0.0
 30
0.0
 11
-1.0
 21
0.0
 31
0.0
  0
ENDBLK
  5
149
330
144
100
AcDbEntity
  8
0
100
AcDbBlockEnd
  0
BLOCK
  5
F5E3
330
F5D7
100
AcDbEntity
  8
0
100
AcDbBlockBegin
  2
*D1
 70
     1
 10
0.0
 20
0.0
 30
0.0
  3
*D1
  1

  0
LINE
  5
FBE8
330
F5D7
100
AcDbEntity
  8
D-STR-DIM
 62
     0
370
    -2
100
AcDbLine
 10
5540.0
 20
5780.0
 30
0.0
 11
5400.0
 21
5780.0
 31
0.0
  0
LINE
  5
FBE9
330
F5D7
100
AcDbEntity
  8
D-STR-DIM
 62
     0
370
    -2
100
AcDbLine
 10
6644.999999999606
 20
5280.000000000004
 30
0.0
 11
5400.0
 21
5280.000000000004
 31
0.0
  0
LINE
  5
FBEA
330
F5D7
100
AcDbEntity
  8
D-STR-DIM
 62
     0
370
    -2
100
AcDbLine
 10
5420.0
 20
5740.0
 30
0.0
 11
5420.0
 21
5320.000000000004
 31
0.0
  0
INSERT
  5
FBEB
330
F5D7
100
AcDbEntity
  8
D-STR-DIM
 62
     0
370
    -2
100
AcDbBlockReference
  2
_Open
 10
5420.0
 20
5780.0
 30
0.0
 41
40.0
 42
40.0
 43
40.0
 50
90.0
  0
INSERT
  5
FBEC
330
F5D7
100
AcDbEntity
  8
D-STR-DIM
 62
     0
370
    -2
100
AcDbBlockReference
  2
_Open
 10
5420.0
 20
5280.000000000004
 30
0.0
 41
40.0
 42
40.0
 43
40.0
 50
270.0
  0
MTEXT
  5
FBED
330
F5D7
100
AcDbEntity
  8
D-STR-DIM
 62
     0
100
AcDbMText
 10
5301.336717428087
 20
5530.000000000004
 30
0.0
 40
70.0
 41
0.0
 71
     5
 72
     1
  1
根入れ\P500mm以上
  7
ＭＳ ゴシック
 11
0.0000000000000001
 21
1.0
 31
0.0
 73
     1
 44
1.0
  0
POINT
  5
FBEE
330
F5D7
100
AcDbEntity
  8
Defpoints
 62
     0
100
AcDbPoint
 10
5560.0
 20
5780.0
 30
0.0
  0
POINT
  5
FBEF
330
F5D7
100
AcDbEntity
  8
Defpoints
 62
     0
100
AcDbPoint
 10
6664.999999999607
 20
5280.000000000004
 30
0.0
  0
POINT
  5
FBF0
330
F5D7
100
AcDbEntity
  8
Defpoints
 62
     0
100
AcDbPoint
 10
5420.0
 20
5280.000000000004
 30
0.0
  0
ENDBLK
  5
F5E4
330
F5D7
100
AcDbEntity
  8
0
100
AcDbBlockEnd
  0
BLOCK
  5
F5EF
330
F5E5
100
AcDbEntity
  8
0
100
AcDbBlockBegin
  2
*D2
 70
     1
 10
0.0
 20
0.0
 30
0.0
  3
*D2
  1

  0
LINE
  5
FBF1
330
F5E5
100
AcDbEntity
  8
D-STR-DIM
 62
     0
370
    -2
100
AcDbLine
 10
6860.0
 20
4960.0
 30
0.0
 11
6860.0
 21
4400.0
 31
0.0
  0
LINE
  5
FBF2
330
F5E5
100
AcDbEntity
  8
D-STR-DIM
 62
     0
370
    -2
100
AcDbLine
 10
8310.0
 20
4960.0
 30
0.0
 11
8310.0
 21
4400.0
 31
0.0
  0
LINE
  5
FBF3
330
F5E5
100
AcDbEntity
  8
D-STR-DIM
 62
     0
370
    -2
100
AcDbLine
 10
6900.0
 20
4420.0
 30
0.0
 11
8270.0
 21
4420.0
 31
0.0
  0
INSERT
  5
FBF4
330
F5E5
100
AcDbEntity
  8
D-STR-DIM
 62
     0
370
    -2
100
AcDbBlockReference
  2
_Open
 10
6860.0
 20
4420.0
 30
0.0
 41
40.0
 42
40.0
 43
40.0
 50
180.0
  0
INSERT
  5
FBF5
330
F5E5
100
AcDbEntity
  8
D-STR-DIM
 62
     0
370
    -2
100
AcDbBlockReference
  2
_Open
 10
8310.0
 20
4420.0
 30
0.0
 41
40.0
 42
40.0
 43
40.0
  0
MTEXT
  5
FBF6
330
F5E5
100
AcDbEntity
  8
D-STR-DIM
 62
     0
100
AcDbMText
 10
7585.0
 20
4475.0
 30
0.0
 40
70.0
 41
0.0
 71
     5
 72
     1
  1
1450
  7
ＭＳ ゴシック
 73
     1
 44
1.0
  0
POINT
  5
FBF7
330
F5E5
100
AcDbEntity
  8
Defpoints
 62
     0
100
AcDbPoint
 10
6860.0
 20
4980.0
 30
0.0
  0
POINT
  5
FBF8
330
F5E5
100
AcDbEntity
  8
Defpoints
 62
     0
100
AcDbPoint
 10
8310.0
 20
4980.0
 30
0.0
  0
POINT
  5
FBF9
330
F5E5
100
AcDbEntity
  8
Defpoints
 62
     0
100
AcDbPoint
 10
8310.0
 20
4420.0
 30
0.0
  0
ENDBLK
  5
F5F0
330
F5E5
100
AcDbEntity
  8
0
100
AcDbBlockEnd
  0
BLOCK
  5
F5FB
330
F5F1
100
AcDbEntity
  8
0
100
AcDbBlockBegin
  2
*D3
 70
     1
 10
0.0
 20
0.0
 30
0.0
  3
*D3
  1

  0
LINE
  5
FBFA
330
F5F1
100
AcDbEntity
  8
D-STR-DIM
 62
     0
370
    -2
100
AcDbLine
 10
7160.0
 20
4960.0
 30
0.0
 11
7160.0
 21
4540.0
 31
0.0
  0
LINE
  5
FBFB
330
F5F1
100
AcDbEntity
  8
D-STR-DIM
 62
     0
370
    -2
100
AcDbLine
 10
8160.0
 20
4960.0
 30
0.0
 11
8160.0
 21
4540.0
 31
0.0
  0
LINE
  5
FBFC
330
F5F1
100
AcDbEntity
  8
D-STR-DIM
 62
     0
370
    -2
100
AcDbLine
 10
7200.0
 20
4560.0
 30
0.0
 11
8120.0
 21
4560.0
 31
0.0
  0
INSERT
  5
FBFD
330
F5F1
100
AcDbEntity
  8
D-STR-DIM
 62
     0
370
    -2
100
AcDbBlockReference
  2
_Open
 10
7160.0
 20
4560.0
 30
0.0
 41
40.0
 42
40.0
 43
40.0
 50
180.0
  0
INSERT
  5
FBFE
330
F5F1
100
AcDbEntity
  8
D-STR-DIM
 62
     0
370
    -2
100
AcDbBlockReference
  2
_Open
 10
8160.0
 20
4560.0
 30
0.0
 41
40.0
 42
40.0
 43
40.0
  0
MTEXT
  5
FBFF
330
F5F1
100
AcDbEntity
  8
D-STR-DIM
 62
     0
100
AcDbMText
 10
7660.0
 20
4615.0
 30
0.0
 40
70.0
 41
0.0
 71
     5
 72
     1
  1
1000
  7
ＭＳ ゴシック
 73
     1
 44
1.0
  0
POINT
  5
FC00
330
F5F1
100
AcDbEntity
  8
Defpoints
 62
     0
100
AcDbPoint
 10
7160.0
 20
4980.0
 30
0.0
  0
POINT
  5
FC01
330
F5F1
100
AcDbEntity
  8
Defpoints
 62
     0
100
AcDbPoint
 10
8160.0
 20
4980.0
 30
0.0
  0
POINT
  5
FC02
330
F5F1
100
AcDbEntity
  8
Defpoints
 62
     0
100
AcDbPoint
 10
8160.0
 20
4560.0
 30
0.0
  0
ENDBLK
  5
F5FC
330
F5F1
100
AcDbEntity
  8
0
100
AcDbBlockEnd
  0
BLOCK
  5
F609
330
F5FD
100
AcDbEntity
  8
0
100
AcDbBlockBegin
  2
*D4
 70
     1
 10
0.0
 20
0.0
 30
0.0
  3
*D4
  1

  0
LINE
  5
FC03
330
F5FD
100
AcDbEntity
  8
D-STR-DIM
 62
     0
370
    -2
100
AcDbLine
 10
8160.0
 20
4960.0
 30
0.0
 11
8160.0
 21
4540.0
 31
0.0
  0
LINE
  5
FC04
330
F5FD
100
AcDbEntity
  8
D-STR-DIM
 62
     0
370
    -2
100
AcDbLine
 10
8310.0
 20
4960.0
 30
0.0
 11
8310.0
 21
4540.0
 31
0.0
  0
LINE
  5
FC05
330
F5FD
100
AcDbEntity
  8
D-STR-DIM
 62
     0
370
    -2
100
AcDbLine
 10
8120.0
 20
4560.0
 30
0.0
 11
8080.0
 21
4560.0
 31
0.0
  0
LINE
  5
FC06
330
F5FD
100
AcDbEntity
  8
D-STR-DIM
 62
     0
370
    -2
100
AcDbLine
 10
8350.0
 20
4560.0
 30
0.0
 11
8390.0
 21
4560.0
 31
0.0
  0
LINE
  5
FC07
330
F5FD
100
AcDbEntity
  8
D-STR-DIM
 62
     0
370
    -2
100
AcDbLine
 10
8160.0
 20
4560.0
 30
0.0
 11
8310.0
 21
4560.0
 31
0.0
  0
INSERT
  5
FC08
330
F5FD
100
AcDbEntity
  8
D-STR-DIM
 62
     0
370
    -2
100
AcDbBlockReference
  2
_Open
 10
8160.0
 20
4560.0
 30
0.0
 41
40.0
 42
40.0
 43
40.0
  0
INSERT
  5
FC09
330
F5FD
100
AcDbEntity
  8
D-STR-DIM
 62
     0
370
    -2
100
AcDbBlockReference
  2
_Open
 10
8310.0
 20
4560.0
 30
0.0
 41
40.0
 42
40.0
 43
40.0
 50
180.0
  0
MTEXT
  5
FC0A
330
F5FD
100
AcDbEntity
  8
D-STR-DIM
 62
     0
100
AcDbMText
 10
8235.0
 20
4615.0
 30
0.0
 40
70.0
 41
0.0
 71
     5
 72
     1
  1
150
  7
ＭＳ ゴシック
 73
     1
 44
1.0
  0
POINT
  5
FC0B
330
F5FD
100
AcDbEntity
  8
Defpoints
 62
     0
100
AcDbPoint
 10
8160.0
 20
4980.0
 30
0.0
  0
POINT
  5
FC0C
330
F5FD
100
AcDbEntity
  8
Defpoints
 62
     0
100
AcDbPoint
 10
8310.0
 20
4980.0
 30
0.0
  0
POINT
  5
FC0D
330
F5FD
100
AcDbEntity
  8
Defpoints
 62
     0
100
AcDbPoint
 10
8310.0
 20
4560.0
 30
0.0
  0
ENDBLK
  5
F60A
330
F5FD
100
AcDbEntity
  8
0
100
AcDbBlockEnd
  0
BLOCK
  5
F615
330
F60B
100
AcDbEntity
  8
0
100
AcDbBlockBegin
  2
*D5
 70
     1
 10
0.0
 20
0.0
 30
0.0
  3
*D5
  1

  0
LINE
  5
FC0E
330
F60B
100
AcDbEntity
  8
D-STR-DIM
 62
     0
370
    -2
100
AcDbLine
 10
7160.0
 20
4960.0
 30
0.0
 11
7160.0
 21
4540.0
 31
0.0
  0
LINE
  5
FC0F
330
F60B
100
AcDbEntity
  8
D-STR-DIM
 62
     0
370
    -2
100
AcDbLine
 10
6860.0
 20
4960.0
 30
0.0
 11
6860.0
 21
4540.0
 31
0.0
  0
LINE
  5
FC10
330
F60B
100
AcDbEntity
  8
D-STR-DIM
 62
     0
370
    -2
100
AcDbLine
 10
7120.0
 20
4560.0
 30
0.0
 11
6900.0
 21
4560.0
 31
0.0
  0
INSERT
  5
FC11
330
F60B
100
AcDbEntity
  8
D-STR-DIM
 62
     0
370
    -2
100
AcDbBlockReference
  2
_Open
 10
7160.0
 20
4560.0
 30
0.0
 41
40.0
 42
40.0
 43
40.0
  0
INSERT
  5
FC12
330
F60B
100
AcDbEntity
  8
D-STR-DIM
 62
     0
370
    -2
100
AcDbBlockReference
  2
_Open
 10
6860.0
 20
4560.0
 30
0.0
 41
40.0
 42
40.0
 43
40.0
 50
180.0
  0
MTEXT
  5
FC13
330
F60B
100
AcDbEntity
  8
D-STR-DIM
 62
     0
100
AcDbMText
 10
7010.0
 20
4615.0
 30
0.0
 40
70.0
 41
0.0
 71
     5
 72
     1
  1
300
  7
ＭＳ ゴシック
 73
     1
 44
1.0
  0
POINT
  5
FC14
330
F60B
100
AcDbEntity
  8
Defpoints
 62
     0
100
AcDbPoint
 10
7160.0
 20
4980.0
 30
0.0
  0
POINT
  5
FC15
330
F60B
100
AcDbEntity
  8
Defpoints
 62
     0
100
AcDbPoint
 10
6860.0
 20
4980.0
 30
0.0
  0
POINT
  5
FC16
330
F60B
100
AcDbEntity
  8
Defpoints
 62
     0
100
AcDbPoint
 10
6860.0
 20
4560.0
 30
0.0
  0
ENDBLK
  5
F616
330
F60B
100
AcDbEntity
  8
0
100
AcDbBlockEnd
  0
BLOCK
  5
F621
330
F617
100
AcDbEntity
  8
0
100
AcDbBlockBegin
  2
*D6
 70
     1
 10
0.0
 20
0.0
 30
0.0
  3
*D6
  1

  0
LINE
  5
FC17
330
F617
100
AcDbEntity
  8
D-STR-DIM
 62
     0
370
    -2
100
AcDbLine
 10
7160.0
 20
5800.0
 30
0.0
 11
7160.0
 21
9000.0
 31
0.0
  0
LINE
  5
FC18
330
F617
100
AcDbEntity
  8
D-STR-DIM
 62
     0
370
    -2
100
AcDbLine
 10
8409.999999999607
 20
8300.000000000004
 30
0.0
 11
8409.999999999607
 21
9000.0
 31
0.0
  0
LINE
  5
FC19
330
F617
100
AcDbEntity
  8
D-STR-DIM
 62
     0
370
    -2
100
AcDbLine
 10
7200.0
 20
8980.0
 30
0.0
 11
8369.999999999606
 21
8980.0
 31
0.0
  0
INSERT
  5
FC1A
330
F617
100
AcDbEntity
  8
D-STR-DIM
 62
     0
370
    -2
100
AcDbBlockReference
  2
_Open
 10
7160.0
 20
8980.0
 30
0.0
 41
40.0
 42
40.0
 43
40.0
 50
180.0
  0
INSERT
  5
FC1B
330
F617
100
AcDbEntity
  8
D-STR-DIM
 62
     0
370
    -2
100
AcDbBlockReference
  2
_Open
 10
8409.999999999607
 20
8980.0
 30
0.0
 41
40.0
 42
40.0
 43
40.0
  0
MTEXT
  5
FC1C
330
F617
100
AcDbEntity
  8
D-STR-DIM
 62
     0
100
AcDbMText
 10
7784.999999999803
 20
9038.730964467005
 30
0.0
 40
70.0
 41
0.0
 71
     5
 72
     1
  1
{\fMS Gothic|b0|i0|c128|p0;5@250=1250}
  7
ＭＳ ゴシック
 73
     1
 44
1.0
  0
POINT
  5
FC1D
330
F617
100
AcDbEntity
  8
Defpoints
 62
     0
100
AcDbPoint
 10
7160.0
 20
5780.0
 30
0.0
  0
POINT
  5
FC1E
330
F617
100
AcDbEntity
  8
Defpoints
 62
     0
100
AcDbPoint
 10
8409.999999999607
 20
8280.000000000004
 30
0.0
  0
POINT
  5
FC1F
330
F617
100
AcDbEntity
  8
Defpoints
 62
     0
100
AcDbPoint
 10
8409.999999999607
 20
8980.0
 30
0.0
  0
ENDBLK
  5
F622
330
F617
100
AcDbEntity
  8
0
100
AcDbBlockEnd
  0
BLOCK
  5
F62D
330
F623
100
AcDbEntity
  8
0
100
AcDbBlockBegin
  2
*D7
 70
     1
 10
0.0
 20
0.0
 30
0.0
  3
*D7
  1

  0
LINE
  5
FC20
330
F623
100
AcDbEntity
  8
D-STR-DIM
  6
Continuous
 62
     0
370
    -2
100
AcDbLine
 10
8390.0
 20
8280.0
 30
0.0
 11
5120.0
 21
8280.0
 31
0.0
  0
LINE
  5
FC21
330
F623
100
AcDbEntity
  8
D-STR-DIM
  6
Continuous
 62
     0
370
    -2
100
AcDbLine
 10
6840.0
 20
5280.0
 30
0.0
 11
5120.0
 21
5280.000000000001
 31
0.0
  0
LINE
  5
FC22
330
F623
100
AcDbEntity
  8
D-STR-DIM
  6
Continuous
 62
     0
370
    -2
100
AcDbLine
 10
5140.000000000001
 20
8240.0
 30
0.0
 11
5140.0
 21
5320.000000000001
 31
0.0
  0
INSERT
  5
FC23
330
F623
100
AcDbEntity
  8
D-STR-DIM
  6
Continuous
 62
     0
370
    -2
100
AcDbBlockReference
  2
_Open
 10
5140.000000000001
 20
8280.0
 30
0.0
 41
40.0
 42
40.0
 43
40.0
 50
90.0
  0
INSERT
  5
FC24
330
F623
100
AcDbEntity
  8
D-STR-DIM
  6
Continuous
 62
     0
370
    -2
100
AcDbBlockReference
  2
_Open
 10
5140.0
 20
5280.000000000001
 30
0.0
 41
40.0
 42
40.0
 43
40.0
 50
270.0
  0
MTEXT
  5
FC25
330
F623
100
AcDbEntity
  8
D-STR-DIM
  6
Continuous
 62
     0
370
     0
100
AcDbMText
 10
5081.269035532994
 20
6780.000000000002
 30
0.0
 40
70.0
 41
0.0
 71
     5
 72
     1
  1
6@500=3000
  7
ＭＳ ゴシック
 11
0.0000000000000001
 21
1.0
 31
0.0
 73
     1
 44
1.0
  0
POINT
  5
FC26
330
F623
100
AcDbEntity
  8
Defpoints
  6
Continuous
 62
     0
100
AcDbPoint
 10
8410.0
 20
8280.0
 30
0.0
  0
POINT
  5
FC27
330
F623
100
AcDbEntity
  8
Defpoints
  6
Continuous
 62
     0
100
AcDbPoint
 10
6860.0
 20
5280.0
 30
0.0
  0
POINT
  5
FC28
330
F623
100
AcDbEntity
  8
Defpoints
  6
Continuous
 62
     0
100
AcDbPoint
 10
5140.0
 20
5280.000000000001
 30
0.0
  0
ENDBLK
  5
F62E
330
F623
100
AcDbEntity
  8
0
100
AcDbBlockEnd
  0
BLOCK
  5
F639
330
F62F
100
AcDbEntity
  8
0
100
AcDbBlockBegin
  2
*D8
 70
     1
 10
0.0
 20
0.0
 30
0.0
  3
*D8
  1

  0
LINE
  5
FC29
330
F62F
100
AcDbEntity
  8
D-STR-DIM
  6
Continuous
 62
     0
370
    -2
100
AcDbLine
 10
6840.0
 20
5280.0
 30
0.0
 11
5120.0
 21
5280.000000000001
 31
0.0
  0
LINE
  5
FC2A
330
F62F
100
AcDbEntity
  8
D-STR-DIM
  6
Continuous
 62
     0
370
    -2
100
AcDbLine
 10
6840.0
 20
4980.0
 30
0.0
 11
5120.0
 21
4980.000000000001
 31
0.0
  0
LINE
  5
FC2B
330
F62F
100
AcDbEntity
  8
D-STR-DIM
  6
Continuous
 62
     0
370
    -2
100
AcDbLine
 10
5140.0
 20
5240.000000000001
 30
0.0
 11
5140.0
 21
5020.000000000001
 31
0.0
  0
INSERT
  5
FC2C
330
F62F
100
AcDbEntity
  8
D-STR-DIM
  6
Continuous
 62
     0
370
    -2
100
AcDbBlockReference
  2
_Open
 10
5140.0
 20
5280.000000000001
 30
0.0
 41
40.0
 42
40.0
 43
40.0
 50
90.0
  0
INSERT
  5
FC2D
330
F62F
100
AcDbEntity
  8
D-STR-DIM
  6
Continuous
 62
     0
370
    -2
100
AcDbBlockReference
  2
_Open
 10
5140.0
 20
4980.000000000001
 30
0.0
 41
40.0
 42
40.0
 43
40.0
 50
270.0
  0
MTEXT
  5
FC2E
330
F62F
100
AcDbEntity
  8
D-STR-DIM
  6
Continuous
 62
     0
370
     0
100
AcDbMText
 10
5084.999999999999
 20
5130.000000000002
 30
0.0
 40
70.0
 41
0.0
 71
     5
 72
     1
  1
300
  7
ＭＳ ゴシック
 11
0.0000000000000001
 21
1.0
 31
0.0
 73
     1
 44
1.0
  0
POINT
  5
FC2F
330
F62F
100
AcDbEntity
  8
Defpoints
  6
Continuous
 62
     0
100
AcDbPoint
 10
6860.0
 20
5280.0
 30
0.0
  0
POINT
  5
FC30
330
F62F
100
AcDbEntity
  8
Defpoints
  6
Continuous
 62
     0
100
AcDbPoint
 10
6860.0
 20
4980.0
 30
0.0
  0
POINT
  5
FC31
330
F62F
100
AcDbEntity
  8
Defpoints
  6
Continuous
 62
     0
100
AcDbPoint
 10
5140.0
 20
4980.000000000001
 30
0.0
  0
ENDBLK
  5
F63A
330
F62F
100
AcDbEntity
  8
0
100
AcDbBlockEnd
  0
BLOCK
  5
FD38
330
FD37
100
AcDbEntity
  8
0
100
AcDbBlockBegin
  2
T-D
 70
     0
 10
0.0
 20
0.0
 30
0.0
  3
T-D
  1

  0
LINE
  5
FD39
330
FD37
100
AcDbEntity
  8
0
100
AcDbLine
 10
350.0000000699856
 20
-251.000000050135
 30
0.0
 11
1000.000000199998
 21
-251.000000050135
 31
0.0
  0
LINE
  5
FD3A
330
FD37
100
AcDbEntity
  8
0
100
AcDbLine
 10
0.0
 20
-500.0000001000444
 30
0.0
 11
1000.000000199998
 21
-500.0000001000444
 31
0.0
  0
LINE
  5
FD3B
330
FD37
100
AcDbEntity
  8
0
100
AcDbLine
 10
-30.00000000602085
 20
-260.5000000520704
 30
0.0
 11
-30.00000000602085
 21
-481.0000000962645
 31
0.0
  0
LINE
  5
FD3C
330
FD37
100
AcDbEntity
  8
0
100
AcDbLine
 10
100.0000000199179
 20
-500.0000001000444
 30
0.0
 11
100.0000000199179
 21
0.0
 31
0.0
  0
LINE
  5
FD3D
330
FD37
100
AcDbEntity
  8
0
100
AcDbLine
 10
0.0
 20
-500.0000001000444
 30
0.0
 11
0.0
 21
0.0
 31
0.0
  0
LINE
  5
FD3E
330
FD37
100
AcDbEntity
  8
0
100
AcDbLine
 10
-30.00000000602085
 20
-481.0000000962645
 30
0.0
 11
0.0
 21
-491.0000000982108
 31
0.0
  0
LINE
  5
FD3F
330
FD37
100
AcDbEntity
  8
0
100
AcDbLine
 10
-30.00000000602085
 20
-19.00000000377986
 30
0.0
 11
-30.00000000602085
 21
-204.5000000409345
 31
0.0
  0
LINE
  5
FD40
330
FD37
100
AcDbEntity
  8
0
100
AcDbLine
 10
350.0000000699856
 20
-251.000000050135
 30
0.0
 11
100.0000000199179
 21
0.0
 31
0.0
  0
LINE
  5
FD41
330
FD37
100
AcDbEntity
  8
0
100
AcDbLine
 10
-30.00000000602085
 20
-204.5000000409345
 30
0.0
 11
0.0
 21
-214.5000000429718
 31
0.0
  0
LINE
  5
FD42
330
FD37
100
AcDbEntity
  8
0
100
AcDbLine
 10
0.0
 20
-250.5000000500331
 30
0.0
 11
-30.00000000602085
 21
-260.5000000520704
 31
0.0
  0
LINE
  5
FD43
330
FD37
100
AcDbEntity
  8
0
100
AcDbLine
 10
0.0
 20
-9.000000001833541
 30
0.0
 11
-30.00000000602085
 21
-19.00000000377986
 31
0.0
  0
LINE
  5
FD44
330
FD37
100
AcDbEntity
  8
0
100
AcDbLine
 10
0.0
 20
0.0
 30
0.0
 11
100.0000000199179
 21
0.0
 31
0.0
  0
LINE
  5
FD45
330
FD37
100
AcDbEntity
  8
0
100
AcDbLine
 10
900.000000179989
 20
-500.0000001000444
 30
0.0
 11
900.000000179989
 21
-251.000000050135
 31
0.0
  0
LINE
  5
FD46
330
FD37
100
AcDbEntity
  8
0
100
AcDbLine
 10
1000.000000199998
 20
-500.0000001000444
 30
0.0
 11
1000.000000199998
 21
-251.000000050135
 31
0.0
  0
ENDBLK
  5
FD47
330
FD37
100
AcDbEntity
  8
0
100
AcDbBlockEnd
  0
ENDSEC
  0
SECTION
  2
ENTITIES
  0
LWPOLYLINE
  5
EF61
330
1F
100
AcDbEntity
  8
D-TTL
100
AcDbPolyline
 90
        4
 70
     1
 43
0.0
 10
0.0
 20
0.0
 10
16820.0
 20
0.0
 10
16820.0
 20
11880.0
 10
0.0
 20
11880.0
  0
LWPOLYLINE
  5
EF62
330
1F
100
AcDbEntity
  8
D-TTL
100
AcDbPolyline
 90
        4
 70
     1
 43
0.0
 10
400.0
 20
400.0
 10
16420.0
 20
400.0
 10
16420.0
 20
11480.0
 10
400.0
 20
11480.0
  0
LINE
  5
EF63
330
1F
100
AcDbEntity
  8
D-TTL-FRAM
100
AcDbLine
 10
13920.0
 20
1440.0
 30
0.0
 11
16420.0
 21
1440.0
 31
0.0
  0
LINE
  5
EF64
330
1F
100
AcDbEntity
  8
D-TTL-LINE
100
AcDbLine
 10
13920.0
 20
1210.0
 30
0.0
 11
16420.0
 21
1210.0
 31
0.0
  0
LINE
  5
EF65
330
1F
100
AcDbEntity
  8
D-TTL-LINE
100
AcDbLine
 10
13920.0
 20
750.0
 30
0.0
 11
16420.0
 21
750.0
 31
0.0
  0
LINE
  5
EF66
330
1F
100
AcDbEntity
  8
D-TTL-LINE
100
AcDbLine
 10
13920.0
 20
980.0
 30
0.0
 11
16420.0
 21
980.0
 31
0.0
  0
TEXT
  5
EF67
330
1F
100
AcDbEntity
  8
D-TTL-TXT
100
AcDbText
 10
14544.99999499996
 20
1028.274111675127
 30
0.0
 40
100.0
  1
H=3000
  7
ＭＳ ゴシック
 11
14544.99999499996
 21
1010.0
 31
0.0
100
AcDbText
 73
     1
  0
LINE
  5
EF68
330
1F
100
AcDbEntity
  8
D-TTL-LINE
100
AcDbLine
 10
14419.99999499996
 20
1440.0
 30
0.0
 11
14419.99999499996
 21
750.0
 31
0.0
  0
LINE
  5
EF69
330
1F
100
AcDbEntity
  8
D-TTL-FRAM
100
AcDbLine
 10
13920.0
 20
1440.0
 30
0.0
 11
13920.0
 21
400.0
 31
0.0
  0
TEXT
  5
EF6A
330
1F
100
AcDbEntity
  8
D-TTL-TXT
100
AcDbText
 10
13975.07613963196
 20
1258.274111675127
 30
0.0
 40
100.0
  1
品　名
  7
ＭＳ ゴシック
 72
     1
 11
14169.99999749998
 21
1240.0
 31
0.0
100
AcDbText
 73
     1
  0
TEXT
  5
EF6B
330
1F
100
AcDbEntity
  8
D-TTL-TXT
100
AcDbText
 10
13975.07613963196
 20
798.2741116751269
 30
0.0
 40
100.0
  1
縮　尺
  7
ＭＳ ゴシック
 72
     1
 11
14169.99999749998
 21
780.0
 31
0.0
100
AcDbText
 73
     1
  0
TEXT
  5
EF6C
330
1F
100
AcDbEntity
  8
D-TTL-TXT
100
AcDbText
 10
13975.07613963196
 20
1028.274111675127
 30
0.0
 40
100.0
  1
呼び名
  7
ＭＳ ゴシック
 72
     1
 11
14169.99999749998
 21
1010.0
 31
0.0
100
AcDbText
 73
     1
  0
LINE
  5
EF6D
330
1F
100
AcDbEntity
  8
D-TTL-TXT
100
AcDbLine
 10
14178.17811230928
 20
645.4653918118467
 30
0.0
 11
14231.30864904943
 21
690.8431226812536
 31
0.0
  0
LINE
  5
EF6E
330
1F
100
AcDbEntity
  8
D-TTL-TXT
100
AcDbLine
 10
14169.53900028071
 20
634.7975910151192
 30
0.0
 11
14243.19500719168
 21
697.7057629935345
 31
0.0
  0
LINE
  5
EF6F
330
1F
100
AcDbEntity
  8
D-TTL-TXT
100
AcDbLine
 10
14163.81184334128
 20
626.6188801594737
 30
0.0
 11
14252.16941024489
 21
702.0831280620041
 31
0.0
  0
LINE
  5
EF70
330
1F
100
AcDbEntity
  8
D-TTL-TXT
100
AcDbLine
 10
14156.11128094115
 20
583.8771050742409
 30
0.0
 11
14295.58960539016
 21
703.0024700937404
 31
0.0
  0
LINE
  5
EF71
330
1F
100
AcDbEntity
  8
D-TTL-TXT
100
AcDbLine
 10
14228.4433941991
 20
617.0172872379382
 30
0.0
 11
14289.35889351557
 21
669.0440353749338
 31
0.0
  0
LINE
  5
EF72
330
1F
100
AcDbEntity
  8
D-TTL-TXT
100
AcDbLine
 10
14296.6653798107
 20
700.8814984353375
 30
0.0
 11
14228.4433941991
 21
642.6158129828011
 31
0.0
  0
LINE
  5
EF73
330
1F
100
AcDbEntity
  8
D-TTL-TXT
100
AcDbLine
 10
14228.4433941991
 20
629.8155964360533
 30
0.0
 11
14297.22107390837
 21
688.5581190420634
 31
0.0
  0
LINE
  5
EF74
330
1F
100
AcDbEntity
  8
D-TTL-TXT
100
AcDbLine
 10
14159.69329653893
 20
619.8134603056289
 30
0.0
 11
14259.53517335863
 21
705.087202128668
 31
0.0
  0
LINE
  5
EF75
330
1F
100
AcDbEntity
  8
D-TTL-TXT
100
AcDbLine
 10
14156.67311431723
 20
613.9464559696691
 30
0.0
 11
14265.80260169408
 21
707.1528606772674
 31
0.0
  0
LINE
  5
EF76
330
1F
100
AcDbEntity
  8
D-TTL-TXT
100
AcDbLine
 10
14154.48857430572
 20
608.7928000154691
 30
0.0
 11
14271.23440272047
 21
708.5032634958381
 31
0.0
  0
LINE
  5
EF77
330
1F
100
AcDbEntity
  8
D-TTL-TXT
100
AcDbLine
 10
14152.98424249358
 20
604.2208853882766
 30
0.0
 11
14275.98596574517
 21
709.2738323358546
 31
0.0
  0
LINE
  5
EF78
330
1F
100
AcDbEntity
  8
D-TTL-TXT
100
AcDbLine
 10
14152.06037050881
 20
600.1429740522483
 30
0.0
 11
14280.1570689425
 21
709.5484905362536
 31
0.0
  0
LINE
  5
EF79
330
1F
100
AcDbEntity
  8
D-TTL-TXT
100
AcDbLine
 10
14151.64982862086
 20
596.5056602456752
 30
0.0
 11
14283.8148569442
 21
709.3844585554664
 31
0.0
  0
LINE
  5
EF7A
330
1F
100
AcDbEntity
  8
D-TTL-TXT
100
AcDbLine
 10
14151.70627421892
 20
593.2650749510842
 30
0.0
 11
14287.00564255868
 21
708.821790714428
 31
0.0
  0
LINE
  5
EF7B
330
1F
100
AcDbEntity
  8
D-TTL-TXT
100
AcDbLine
 10
14152.19778901599
 20
590.3983299845276
 30
0.0
 11
14289.76137387537
 21
707.8890972422571
 31
0.0
  0
LINE
  5
EF7C
330
1F
100
AcDbEntity
  8
D-TTL-TXT
100
AcDbLine
 10
14153.10307925294
 20
587.8844445115828
 30
0.0
 11
14292.10332975213
 21
706.601636928026
 31
0.0
  0
LINE
  5
EF7D
330
1F
100
AcDbEntity
  8
D-TTL-TXT
100
AcDbLine
 10
14154.40941933822
 20
585.7119744406372
 30
0.0
 11
14294.04423578057
 21
704.9708538631578
 31
0.0
  0
LINE
  5
EF7E
330
1F
100
AcDbEntity
  8
D-TTL-TXT
100
AcDbLine
 10
14194.77773749229
 20
662.6048264549511
 30
0.0
 11
14192.46865357679
 21
660.4190049435758
 31
0.0
  0
LINE
  5
EF7F
330
1F
100
AcDbEntity
  8
D-TTL-TXT
100
AcDbLine
 10
14183.65262006319
 20
651.5193163118238
 30
0.0
 11
14181.56711316798
 21
649.2648302503948
 31
0.0
  0
LINE
  5
EF80
330
1F
100
AcDbEntity
  8
D-TTL-TXT
100
AcDbLine
 10
14173.16038474598
 20
453.399201105567
 30
0.0
 11
14189.48114960123
 21
453.399201105567
 31
0.0
  0
LINE
  5
EF81
330
1F
100
AcDbEntity
  8
D-TTL-TXT
100
AcDbLine
 10
14189.48114960123
 20
456.8896490686893
 30
0.0
 11
14173.16038474598
 21
456.8896490686893
 31
0.0
  0
LINE
  5
EF82
330
1F
100
AcDbEntity
  8
D-TTL-TXT
100
AcDbLine
 10
14165.22141867033
 20
507.5793458273595
 30
0.0
 11
14233.44338938074
 21
565.8450312798959
 31
0.0
  0
LINE
  5
EF83
330
1F
100
AcDbEntity
  8
D-TTL-TXT
100
AcDbLine
 10
14233.44338938074
 20
578.6452478266437
 30
0.0
 11
14164.66573947378
 21
519.9027252208179
 31
0.0
  0
LINE
  5
EF84
330
1F
100
AcDbEntity
  8
D-TTL-TXT
100
AcDbLine
 10
14233.44338938074
 20
591.4435570249382
 30
0.0
 11
14172.52789006426
 21
539.4168088879426
 31
0.0
  0
LINE
  5
EF85
330
1F
100
AcDbEntity
  8
D-TTL-TXT
100
AcDbLine
 10
14160.71398136704
 20
581.2335198955406
 30
0.0
 11
14228.4433941991
 21
639.0795886530395
 31
0.0
  0
LINE
  5
EF86
330
1F
100
AcDbEntity
  8
D-TTL-TXT
100
AcDbLine
 10
14163.6390196755
 20
580.4438775693754
 30
0.0
 11
14228.4433941991
 21
635.791319642992
 31
0.0
  0
LINE
  5
EF87
330
1F
100
AcDbEntity
  8
D-TTL-TXT
100
AcDbLine
 10
14167.01034775728
 20
580.0357049661397
 30
0.0
 11
14228.4433941991
 21
632.503050632765
 31
0.0
  0
LINE
  5
EF88
330
1F
100
AcDbEntity
  8
D-TTL-TXT
100
AcDbLine
 10
14170.86498009634
 20
580.039519663221
 30
0.0
 11
14228.4433941991
 21
629.2166889713553
 31
0.0
  0
LINE
  5
EF89
330
1F
100
AcDbEntity
  8
D-TTL-TXT
100
AcDbLine
 10
14175.2565906748
 20
580.5030053764494
 30
0.0
 11
14228.4433941991
 21
625.9284199613078
 31
0.0
  0
LINE
  5
EF8A
330
1F
100
AcDbEntity
  8
D-TTL-TXT
100
AcDbLine
 10
14180.26332118123
 20
581.4910119584237
 30
0.0
 11
14228.4433941991
 21
622.6401509510808
 31
0.0
  0
LINE
  5
EF8B
330
1F
100
AcDbEntity
  8
D-TTL-TXT
100
AcDbLine
 10
14158.2100498697
 20
582.3817437610316
 30
0.0
 11
14228.4433941991
 21
642.3678576630821
 31
0.0
  0
LINE
  5
EF8C
330
1F
100
AcDbEntity
  8
D-TTL-TXT
100
AcDbLine
 10
14309.82641307102
 20
608.3178702106281
 30
0.0
 11
14181.72974443965
 21
498.9123537264434
 31
0.0
  0
LINE
  5
EF8D
330
1F
100
AcDbEntity
  8
D-TTL-TXT
100
AcDbLine
 10
14310.23694005784
 20
611.9551840170218
 30
0.0
 11
14178.07195643796
 21
499.07638570741
 31
0.0
  0
LINE
  5
EF8E
330
1F
100
AcDbEntity
  8
D-TTL-TXT
100
AcDbLine
 10
14310.18049445975
 20
615.1957693117922
 30
0.0
 11
14174.88114102115
 21
499.6390535484533
 31
0.0
  0
LINE
  5
EF8F
330
1F
100
AcDbEntity
  8
D-TTL-TXT
100
AcDbLine
 10
14309.68899456388
 20
618.0625142781694
 30
0.0
 11
14172.12543950678
 21
500.5717470204399
 31
0.0
  0
LINE
  5
EF90
330
1F
100
AcDbEntity
  8
D-TTL-TXT
100
AcDbLine
 10
14308.78368942573
 20
620.578307099747
 30
0.0
 11
14169.78348363002
 21
501.859207334671
 31
0.0
  0
LINE
  5
EF91
330
1F
100
AcDbEntity
  8
D-TTL-TXT
100
AcDbLine
 10
14307.47733443924
 20
622.7488698220597
 30
0.0
 11
14167.84257760158
 21
503.4899903995392
 31
0.0
  0
LINE
  5
EF92
330
1F
100
AcDbEntity
  8
D-TTL-TXT
100
AcDbLine
 10
14305.77550263869
 20
624.5837391886355
 30
0.0
 11
14166.29720799192
 21
505.4583741689566
 31
0.0
  0
LINE
  5
EF93
330
1F
100
AcDbEntity
  8
D-TTL-TXT
100
AcDbLine
 10
14182.9990849421
 20
498.9505006987358
 30
0.0
 11
14184.74499437708
 21
499.0687563128788
 31
0.0
  0
LINE
  5
EF94
330
1F
100
AcDbEntity
  8
D-TTL-TXT
100
AcDbLine
 10
14181.93469500867
 20
581.9125360020891
 30
0.0
 11
14184.02929161209
 21
582.4980920265418
 31
0.0
  0
LINE
  5
EF95
330
1F
100
AcDbEntity
  8
D-TTL-TXT
100
AcDbLine
 10
14181.31915784823
 20
498.9104463779949
 30
0.0
 11
14182.9990849421
 21
498.9505006987358
 31
0.0
  0
LINE
  5
EF96
330
1F
100
AcDbEntity
  8
D-TTL-TXT
100
AcDbLine
 10
14179.89219286424
 20
581.4032739222214
 30
0.0
 11
14181.93469500867
 21
581.9125360020891
 31
0.0
  0
LINE
  5
EF97
330
1F
100
AcDbEntity
  8
D-TTL-TXT
100
AcDbLine
 10
14173.16038474598
 20
435.0028237259878
 30
0.0
 11
14173.16038474598
 21
453.399201105567
 31
0.0
  0
LINE
  5
EF98
330
1F
100
AcDbEntity
  8
D-TTL-TXT
100
AcDbLine
 10
14147.96644042449
 20
445.2300269929012
 30
0.0
 11
14147.95067499613
 21
445.4570014778437
 31
0.0
  0
LINE
  5
EF99
330
1F
100
AcDbEntity
  8
D-TTL-TXT
100
AcDbLine
 10
14156.16899313795
 20
445.3921516250557
 30
0.0
 11
14156.13822224033
 21
445.7907874853117
 31
0.0
  0
LINE
  5
EF9A
330
1F
100
AcDbEntity
  8
D-TTL-TXT
100
AcDbLine
 10
14165.89623264936
 20
472.4555211053666
 30
0.0
 11
14165.89623264936
 21
435.0028237259878
 31
0.0
  0
LINE
  5
EF9B
330
1F
100
AcDbEntity
  8
D-TTL-TXT
100
AcDbLine
 10
14168.39623024021
 20
472.4555211053666
 30
0.0
 11
14168.39623024021
 21
435.0028237259878
 31
0.0
  0
LINE
  5
EF9C
330
1F
100
AcDbEntity
  8
D-TTL-TXT
100
AcDbLine
 10
14170.8962427322
 20
472.4555211053666
 30
0.0
 11
14170.8962427322
 21
435.0028237259878
 31
0.0
  0
LINE
  5
EF9D
330
1F
100
AcDbEntity
  8
D-TTL-TXT
100
AcDbLine
 10
14165.89623264936
 20
435.0028237259878
 30
0.0
 11
14173.16038474598
 21
435.0028237259878
 31
0.0
  0
LINE
  5
EF9E
330
1F
100
AcDbEntity
  8
D-TTL-TXT
100
AcDbLine
 10
14131.72310200203
 20
441.9398506342258
 30
0.0
 11
14124.13924549524
 21
439.6376808573404
 31
0.0
  0
LINE
  5
EF9F
330
1F
100
AcDbEntity
  8
D-TTL-TXT
100
AcDbLine
 10
14147.97147701695
 20
444.9553687925072
 30
0.0
 11
14156.17906632277
 21
444.9553687925072
 31
0.0
  0
LINE
  5
EFA0
330
1F
100
AcDbEntity
  8
D-TTL-TXT
100
AcDbLine
 10
14147.28338610341
 20
442.4548347598077
 30
0.0
 11
14155.62380435873
 21
442.4548347598077
 31
0.0
  0
LINE
  5
EFA1
330
1F
100
AcDbEntity
  8
D-TTL-TXT
100
AcDbLine
 10
14144.79092850008
 20
439.9543007272925
 30
0.0
 11
14153.87701575531
 21
439.9543007272925
 31
0.0
  0
LINE
  5
EFA2
330
1F
100
AcDbEntity
  8
D-TTL-TXT
100
AcDbLine
 10
14127.52233059305
 20
437.4556740432308
 30
0.0
 11
14150.3872681467
 21
437.4556740432308
 31
0.0
  0
LINE
  5
EFA3
330
1F
100
AcDbEntity
  8
D-TTL-TXT
100
AcDbLine
 10
14133.88833010882
 20
439.9543007272925
 30
0.0
 11
14125.18795940723
 21
439.9543007272925
 31
0.0
  0
LINE
  5
EFA4
330
1F
100
AcDbEntity
  8
D-TTL-TXT
100
AcDbLine
 10
14129.38442438073
 20
436.6698464143312
 30
0.0
 11
14129.91438417328
 21
436.4810189016862
 31
0.0
  0
LINE
  5
EFA5
330
1F
100
AcDbEntity
  8
D-TTL-TXT
100
AcDbLine
 10
14148.26321194789
 20
436.5229805710598
 30
0.0
 11
14148.75617215759
 21
436.7118080838893
 31
0.0
  0
LINE
  5
EFA6
330
1F
100
AcDbEntity
  8
D-TTL-TXT
100
AcDbLine
 10
14129.91438417328
 20
436.4810189016862
 30
0.0
 11
14130.455832761
 21
436.3036354804692
 31
0.0
  0
LINE
  5
EFA7
330
1F
100
AcDbEntity
  8
D-TTL-TXT
100
AcDbLine
 10
14130.455832761
 20
436.3036354804692
 30
0.0
 11
14131.0080995916
 21
436.1376961512335
 31
0.0
  0
LINE
  5
EFA8
330
1F
100
AcDbEntity
  8
D-TTL-TXT
100
AcDbLine
 10
14131.0080995916
 20
436.1376961512335
 30
0.0
 11
14131.57052901413
 21
435.9812935647981
 31
0.0
  0
LINE
  5
EFA9
330
1F
100
AcDbEntity
  8
D-TTL-TXT
100
AcDbLine
 10
14131.57052901413
 20
435.9812935647981
 30
0.0
 11
14132.14242067384
 21
435.8363350701595
 31
0.0
  0
LINE
  5
EFAA
330
1F
100
AcDbEntity
  8
D-TTL-TXT
100
AcDbLine
 10
14132.14242067384
 20
435.8363350701595
 30
0.0
 11
14132.72307421626
 21
435.7028206673178
 31
0.0
  0
LINE
  5
EFAB
330
1F
100
AcDbEntity
  8
D-TTL-TXT
100
AcDbLine
 10
14132.72307421626
 20
435.7028206673178
 30
0.0
 11
14133.31178928685
 21
435.5788430072764
 31
0.0
  0
LINE
  5
EFAC
330
1F
100
AcDbEntity
  8
D-TTL-TXT
100
AcDbLine
 10
14133.31178928685
 20
435.5788430072764
 30
0.0
 11
14133.9078506298
 21
435.4682167876647
 31
0.0
  0
LINE
  5
EFAD
330
1F
100
AcDbEntity
  8
D-TTL-TXT
100
AcDbLine
 10
14133.9078506298
 20
435.4682167876647
 30
0.0
 11
14134.51052808825
 21
435.3690346598498
 31
0.0
  0
LINE
  5
EFAE
330
1F
100
AcDbEntity
  8
D-TTL-TXT
100
AcDbLine
 10
14134.51052808825
 20
435.3690346598498
 30
0.0
 11
14135.1190915053
 21
435.2812966236524
 31
0.0
  0
LINE
  5
EFAF
330
1F
100
AcDbEntity
  8
D-TTL-TXT
100
AcDbLine
 10
14135.1190915053
 20
435.2812966236524
 30
0.0
 11
14135.73279582299
 21
435.2050026790675
 31
0.0
  0
LINE
  5
EFB0
330
1F
100
AcDbEntity
  8
D-TTL-TXT
100
AcDbLine
 10
14135.73279582299
 20
435.2050026790675
 30
0.0
 11
14136.35089598312
 21
435.1420601747279
 31
0.0
  0
LINE
  5
EFB1
330
1F
100
AcDbEntity
  8
D-TTL-TXT
100
AcDbLine
 10
14136.35089598312
 20
435.1420601747279
 30
0.0
 11
14136.97264692772
 21
435.0905617621902
 31
0.0
  0
LINE
  5
EFB2
330
1F
100
AcDbEntity
  8
D-TTL-TXT
100
AcDbLine
 10
14136.97264692772
 20
435.0905617621902
 30
0.0
 11
14137.59725889523
 21
435.0505074414443
 31
0.0
  0
LINE
  5
EFB3
330
1F
100
AcDbEntity
  8
D-TTL-TXT
100
AcDbLine
 10
14137.59725889523
 20
435.0505074414443
 30
0.0
 11
14138.22401662994
 21
435.0218972121365
 31
0.0
  0
LINE
  5
EFB4
330
1F
100
AcDbEntity
  8
D-TTL-TXT
100
AcDbLine
 10
14138.22401662994
 20
435.0218972121365
 30
0.0
 11
14138.85211546917
 21
435.0066384232534
 31
0.0
  0
LINE
  5
EFB5
330
1F
100
AcDbEntity
  8
D-TTL-TXT
100
AcDbLine
 10
14138.85211546917
 20
435.0066384232534
 30
0.0
 11
14139.33962185384
 21
435.0028237259878
 31
0.0
  0
LINE
  5
EFB6
330
1F
100
AcDbEntity
  8
D-TTL-TXT
100
AcDbLine
 10
14139.33962185384
 20
435.0028237259878
 30
0.0
 11
14139.9273087443
 21
435.0085457718862
 31
0.0
  0
LINE
  5
EFB7
330
1F
100
AcDbEntity
  8
D-TTL-TXT
100
AcDbLine
 10
14139.9273087443
 20
435.0085457718862
 30
0.0
 11
14140.51429528019
 21
435.0276192580349
 31
0.0
  0
LINE
  5
EFB8
330
1F
100
AcDbEntity
  8
D-TTL-TXT
100
AcDbLine
 10
14140.51429528019
 20
435.0276192580349
 30
0.0
 11
14141.09983640344
 21
435.0581368357961
 31
0.0
  0
LINE
  5
EFB9
330
1F
100
AcDbEntity
  8
D-TTL-TXT
100
AcDbLine
 10
14141.09983640344
 20
435.0581368357961
 30
0.0
 11
14141.68323175952
 21
435.1000985053542
 31
0.0
  0
LINE
  5
EFBA
330
1F
100
AcDbEntity
  8
D-TTL-TXT
100
AcDbLine
 10
14141.68323175952
 20
435.1000985053542
 30
0.0
 11
14142.26378099382
 21
435.1554116151576
 31
0.0
  0
LINE
  5
EFBB
330
1F
100
AcDbEntity
  8
D-TTL-TXT
100
AcDbLine
 10
14142.26378099382
 20
435.1554116151576
 30
0.0
 11
14142.84075394946
 21
435.2221688165784
 31
0.0
  0
LINE
  5
EFBC
330
1F
100
AcDbEntity
  8
D-TTL-TXT
100
AcDbLine
 10
14142.84075394946
 20
435.2221688165784
 30
0.0
 11
14143.4134800742
 21
435.3003701097962
 31
0.0
  0
LINE
  5
EFBD
330
1F
100
AcDbEntity
  8
D-TTL-TXT
100
AcDbLine
 10
14143.4134800742
 20
435.3003701097962
 30
0.0
 11
14143.98122921124
 21
435.3900154946313
 31
0.0
  0
LINE
  5
EFBE
330
1F
100
AcDbEntity
  8
D-TTL-TXT
100
AcDbLine
 10
14143.98122921124
 20
435.3900154946313
 30
0.0
 11
14144.54333080812
 21
435.4930123197118
 31
0.0
  0
LINE
  5
EFBF
330
1F
100
AcDbEntity
  8
D-TTL-TXT
100
AcDbLine
 10
14144.54333080812
 20
435.4930123197118
 30
0.0
 11
14145.09908451047
 21
435.6055458879564
 31
0.0
  0
LINE
  5
EFC0
330
1F
100
AcDbEntity
  8
D-TTL-TXT
100
AcDbLine
 10
14145.09908451047
 20
435.6055458879564
 30
0.0
 11
14145.64781976594
 21
435.7314308964462
 31
0.0
  0
LINE
  5
EFC1
330
1F
100
AcDbEntity
  8
D-TTL-TXT
100
AcDbLine
 10
14145.64781976594
 20
435.7314308964462
 30
0.0
 11
14146.18888092347
 21
435.8668526479207
 31
0.0
  0
LINE
  5
EFC2
330
1F
100
AcDbEntity
  8
D-TTL-TXT
100
AcDbLine
 10
14146.18888092347
 20
435.8668526479207
 30
0.0
 11
14146.72158252969
 21
436.0156258398249
 31
0.0
  0
LINE
  5
EFC3
330
1F
100
AcDbEntity
  8
D-TTL-TXT
100
AcDbLine
 10
14146.72158252969
 20
436.0156258398249
 30
0.0
 11
14147.24529873577
 21
436.1739357748931
 31
0.0
  0
LINE
  5
EFC4
330
1F
100
AcDbEntity
  8
D-TTL-TXT
100
AcDbLine
 10
14147.24529873577
 20
436.1739357748931
 30
0.0
 11
14147.75938879182
 21
436.3436898013945
 31
0.0
  0
LINE
  5
EFC5
330
1F
100
AcDbEntity
  8
D-TTL-TXT
100
AcDbLine
 10
14147.75938879182
 20
436.3436898013945
 30
0.0
 11
14148.26321194789
 21
436.5229805710598
 31
0.0
  0
LINE
  5
EFC6
330
1F
100
AcDbEntity
  8
D-TTL-TXT
100
AcDbLine
 10
14147.97170053437
 20
445.0030525077793
 30
0.0
 11
14147.96644042449
 21
445.2300269929012
 31
0.0
  0
LINE
  5
EFC7
330
1F
100
AcDbEntity
  8
D-TTL-TXT
100
AcDbLine
 10
14131.72310200203
 20
441.9398506342258
 30
0.0
 11
14131.86950590931
 21
441.7414863784117
 31
0.0
  0
LINE
  5
EFC8
330
1F
100
AcDbEntity
  8
D-TTL-TXT
100
AcDbLine
 10
14131.86950590931
 20
441.7414863784117
 30
0.0
 11
14132.025014426
 21
441.5469368196839
 31
0.0
  0
LINE
  5
EFC9
330
1F
100
AcDbEntity
  8
D-TTL-TXT
100
AcDbLine
 10
14132.025014426
 20
441.5469368196839
 30
0.0
 11
14132.18944873813
 21
441.356201958406
 31
0.0
  0
LINE
  5
EFCA
330
1F
100
AcDbEntity
  8
D-TTL-TXT
100
AcDbLine
 10
14132.18944873813
 20
441.356201958406
 30
0.0
 11
14132.3625704271
 21
441.1692817942094
 31
0.0
  0
LINE
  5
EFCB
330
1F
100
AcDbEntity
  8
D-TTL-TXT
100
AcDbLine
 10
14132.3625704271
 20
441.1692817942094
 30
0.0
 11
14132.54420067911
 21
440.9880836759112
 31
0.0
  0
LINE
  5
EFCC
330
1F
100
AcDbEntity
  8
D-TTL-TXT
100
AcDbLine
 10
14132.54420067911
 20
440.9880836759112
 30
0.0
 11
14132.73411597663
 21
440.812607603327
 31
0.0
  0
LINE
  5
EFCD
330
1F
100
AcDbEntity
  8
D-TTL-TXT
100
AcDbLine
 10
14132.73411597663
 20
440.8126076035114
 30
0.0
 11
14132.93207790109
 21
440.6409462281929
 31
0.0
  0
LINE
  5
EFCE
330
1F
100
AcDbEntity
  8
D-TTL-TXT
100
AcDbLine
 10
14132.93207790109
 20
440.6409462281929
 30
0.0
 11
14133.13784803398
 21
440.4750068987778
 31
0.0
  0
LINE
  5
EFCF
330
1F
100
AcDbEntity
  8
D-TTL-TXT
100
AcDbLine
 10
14133.13784803398
 20
440.4750068987778
 30
0.0
 11
14133.35117305549
 21
440.3147896152561
 31
0.0
  0
LINE
  5
EFD0
330
1F
100
AcDbEntity
  8
D-TTL-TXT
100
AcDbLine
 10
14133.35117305549
 20
440.3147896152561
 30
0.0
 11
14133.57178474478
 21
440.1602943774535
 31
0.0
  0
LINE
  5
EFD1
330
1F
100
AcDbEntity
  8
D-TTL-TXT
100
AcDbLine
 10
14133.57178474478
 20
440.1602943774535
 30
0.0
 11
14133.79942978205
 21
440.0115211857337
 31
0.0
  0
LINE
  5
EFD2
330
1F
100
AcDbEntity
  8
D-TTL-TXT
100
AcDbLine
 10
14133.79942978205
 20
440.0115211857337
 30
0.0
 11
14134.03382504526
 21
439.8684700395436
 31
0.0
  0
LINE
  5
EFD3
330
1F
100
AcDbEntity
  8
D-TTL-TXT
100
AcDbLine
 10
14134.03382504526
 20
439.8684700395436
 30
0.0
 11
14134.2746874124
 21
439.7311409394363
 31
0.0
  0
LINE
  5
EFD4
330
1F
100
AcDbEntity
  8
D-TTL-TXT
100
AcDbLine
 10
14134.2746874124
 20
439.7311409394363
 30
0.0
 11
14134.52171886023
 21
439.6014412336808
 31
0.0
  0
LINE
  5
EFD5
330
1F
100
AcDbEntity
  8
D-TTL-TXT
100
AcDbLine
 10
14134.52171886023
 20
439.6014412336808
 30
0.0
 11
14134.77462136547
 21
439.4774635738188
 31
0.0
  0
LINE
  5
EFD6
330
1F
100
AcDbEntity
  8
D-TTL-TXT
100
AcDbLine
 10
14134.77462136547
 20
439.4774635738188
 30
0.0
 11
14135.03308200376
 21
439.3611153083086
 31
0.0
  0
LINE
  5
EFD7
330
1F
100
AcDbEntity
  8
D-TTL-TXT
100
AcDbLine
 10
14135.03308200376
 20
439.3611153083086
 30
0.0
 11
14135.29678785079
 21
439.2523964373297
 31
0.0
  0
LINE
  5
EFD8
330
1F
100
AcDbEntity
  8
D-TTL-TXT
100
AcDbLine
 10
14135.29678785079
 20
439.2523964373297
 30
0.0
 11
14135.56542598209
 21
439.1493996122492
 31
0.0
  0
LINE
  5
EFD9
330
1F
100
AcDbEntity
  8
D-TTL-TXT
100
AcDbLine
 10
14135.56542598209
 20
439.1493996122492
 30
0.0
 11
14135.83866857218
 21
439.0521248330672
 31
0.0
  0
LINE
  5
EFDA
330
1F
100
AcDbEntity
  8
D-TTL-TXT
100
AcDbLine
 10
14135.83866857218
 20
439.0521248330672
 30
0.0
 11
14136.11615799316
 21
438.9643867966854
 31
0.0
  0
LINE
  5
EFDB
330
1F
100
AcDbEntity
  8
D-TTL-TXT
100
AcDbLine
 10
14136.11615799316
 20
438.9643867966854
 30
0.0
 11
14136.39758132063
 21
438.8842781550192
 31
0.0
  0
LINE
  5
EFDC
330
1F
100
AcDbEntity
  8
D-TTL-TXT
100
AcDbLine
 10
14136.39758132063
 20
438.8842781550192
 30
0.0
 11
14136.68259582791
 21
438.8098915590672
 31
0.0
  0
LINE
  5
EFDD
330
1F
100
AcDbEntity
  8
D-TTL-TXT
100
AcDbLine
 10
14136.68259582791
 20
438.8098915590672
 30
0.0
 11
14136.97084388722
 21
438.7431343574619
 31
0.0
  0
LINE
  5
EFDE
330
1F
100
AcDbEntity
  8
D-TTL-TXT
100
AcDbLine
 10
14136.97084388722
 20
438.7431343574619
 30
0.0
 11
14137.26198277171
 21
438.6859138992051
 31
0.0
  0
LINE
  5
EFDF
330
1F
100
AcDbEntity
  8
D-TTL-TXT
100
AcDbLine
 10
14137.26198277171
 20
438.6859138992051
 30
0.0
 11
14137.55563995245
 21
438.634415486483
 31
0.0
  0
LINE
  5
EFE0
330
1F
100
AcDbEntity
  8
D-TTL-TXT
100
AcDbLine
 10
14137.55563995245
 20
438.634415486483
 30
0.0
 11
14137.8514876038
 21
438.5905464684765
 31
0.0
  0
LINE
  5
EFE1
330
1F
100
AcDbEntity
  8
D-TTL-TXT
100
AcDbLine
 10
14137.8514876038
 20
438.5905464684765
 30
0.0
 11
14138.14913829567
 21
438.5562141934497
 31
0.0
  0
LINE
  5
EFE2
330
1F
100
AcDbEntity
  8
D-TTL-TXT
100
AcDbLine
 10
14138.14913829567
 20
438.5562141934497
 30
0.0
 11
14138.44823440016
 21
438.5276039641369
 31
0.0
  0
LINE
  5
EFE3
330
1F
100
AcDbEntity
  8
D-TTL-TXT
100
AcDbLine
 10
14138.44823440016
 20
438.5276039641369
 30
0.0
 11
14138.74841828939
 21
438.5085304779932
 31
0.0
  0
LINE
  5
EFE4
330
1F
100
AcDbEntity
  8
D-TTL-TXT
100
AcDbLine
 10
14138.74841828939
 20
438.5085304779932
 30
0.0
 11
14139.04933233553
 21
438.4970863863757
 31
0.0
  0
LINE
  5
EFE5
330
1F
100
AcDbEntity
  8
D-TTL-TXT
100
AcDbLine
 10
14139.04933233553
 20
438.4970863863757
 30
0.0
 11
14139.3505891084
 21
438.4932716891101
 31
0.0
  0
LINE
  5
EFE6
330
1F
100
AcDbEntity
  8
D-TTL-TXT
100
AcDbLine
 10
14139.3505891084
 20
438.4932716891101
 30
0.0
 11
14139.65184588128
 21
438.4970863863757
 31
0.0
  0
LINE
  5
EFE7
330
1F
100
AcDbEntity
  8
D-TTL-TXT
100
AcDbLine
 10
14139.65184588128
 20
438.4970863863757
 30
0.0
 11
14139.95271522392
 21
438.510437826626
 31
0.0
  0
LINE
  5
EFE8
330
1F
100
AcDbEntity
  8
D-TTL-TXT
100
AcDbLine
 10
14139.95271522392
 20
438.510437826626
 30
0.0
 11
14140.2528395085
 21
438.5295113127697
 31
0.0
  0
LINE
  5
EFE9
330
1F
100
AcDbEntity
  8
D-TTL-TXT
100
AcDbLine
 10
14140.2528395085
 20
438.5295113127697
 30
0.0
 11
14140.55184620604
 21
438.5581215418981
 31
0.0
  0
LINE
  5
EFEA
330
1F
100
AcDbEntity
  8
D-TTL-TXT
100
AcDbLine
 10
14140.55184620604
 20
438.5581215418981
 30
0.0
 11
14140.84937768861
 21
438.5943611655577
 31
0.0
  0
LINE
  5
EFEB
330
1F
100
AcDbEntity
  8
D-TTL-TXT
100
AcDbLine
 10
14140.84937768861
 20
438.5943611655577
 30
0.0
 11
14141.1450614272
 21
438.6382301837486
 31
0.0
  0
LINE
  5
EFEC
330
1F
100
AcDbEntity
  8
D-TTL-TXT
100
AcDbLine
 10
14141.1450614272
 20
438.6382301837486
 30
0.0
 11
14141.43855469516
 21
438.6897285964708
 31
0.0
  0
LINE
  5
EFED
330
1F
100
AcDbEntity
  8
D-TTL-TXT
100
AcDbLine
 10
14141.43855469516
 20
438.6897285962914
 30
0.0
 11
14141.72949986457
 21
438.7488564033604
 31
0.0
  0
LINE
  5
EFEE
330
1F
100
AcDbEntity
  8
D-TTL-TXT
100
AcDbLine
 10
14141.72949986457
 20
438.7488564033604
 30
0.0
 11
14142.01750950527
 21
438.8156136047812
 31
0.0
  0
LINE
  5
EFEF
330
1F
100
AcDbEntity
  8
D-TTL-TXT
100
AcDbLine
 10
14142.01750950527
 20
438.8156136047812
 30
0.0
 11
14142.30227069281
 21
438.8880928521005
 31
0.0
  0
LINE
  5
EFF0
330
1F
100
AcDbEntity
  8
D-TTL-TXT
100
AcDbLine
 10
14142.30227069281
 20
438.8880928521005
 30
0.0
 11
14142.58342579938
 21
438.9701088425838
 31
0.0
  0
LINE
  5
EFF1
330
1F
100
AcDbEntity
  8
D-TTL-TXT
100
AcDbLine
 10
14142.58342579938
 20
438.9701088425838
 30
0.0
 11
14142.86063209831
 21
439.059754227419
 31
0.0
  0
LINE
  5
EFF2
330
1F
100
AcDbEntity
  8
D-TTL-TXT
100
AcDbLine
 10
14142.86063209831
 20
439.059754227419
 30
0.0
 11
14143.13353196168
 21
439.1551216581476
 31
0.0
  0
LINE
  5
EFF3
330
1F
100
AcDbEntity
  8
D-TTL-TXT
100
AcDbLine
 10
14143.13353196168
 20
439.1551216581476
 30
0.0
 11
14143.40182736629
 21
439.2600258318609
 31
0.0
  0
LINE
  5
EFF4
330
1F
100
AcDbEntity
  8
D-TTL-TXT
100
AcDbLine
 10
14143.40182736629
 20
439.2600258318609
 30
0.0
 11
14143.66516068429
 21
439.3706520514727
 31
0.0
  0
LINE
  5
EFF5
330
1F
100
AcDbEntity
  8
D-TTL-TXT
100
AcDbLine
 10
14143.66516068429
 20
439.3706520514727
 30
0.0
 11
14143.92323389239
 21
439.4870003169828
 31
0.0
  0
LINE
  5
EFF6
330
1F
100
AcDbEntity
  8
D-TTL-TXT
100
AcDbLine
 10
14143.92323389239
 20
439.4870003169828
 30
0.0
 11
14144.17571916518
 21
439.6109779768448
 31
0.0
  0
LINE
  5
EFF7
330
1F
100
AcDbEntity
  8
D-TTL-TXT
100
AcDbLine
 10
14144.17571916518
 20
439.6109779768448
 30
0.0
 11
14144.42230357814
 21
439.7425850312331
 31
0.0
  0
LINE
  5
EFF8
330
1F
100
AcDbEntity
  8
D-TTL-TXT
100
AcDbLine
 10
14144.42230357814
 20
439.7425850312331
 30
0.0
 11
14144.66270400928
 21
439.8780067827076
 31
0.0
  0
LINE
  5
EFF9
330
1F
100
AcDbEntity
  8
D-TTL-TXT
100
AcDbLine
 10
14144.66270400928
 20
439.8780067827076
 30
0.0
 11
14144.89662243533
 21
440.0210579287134
 31
0.0
  0
LINE
  5
EFFA
330
1F
100
AcDbEntity
  8
D-TTL-TXT
100
AcDbLine
 10
14144.89662243533
 20
440.0210579287134
 30
0.0
 11
14145.12376083312
 21
440.1717384692504
 31
0.0
  0
LINE
  5
EFFB
330
1F
100
AcDbEntity
  8
D-TTL-TXT
100
AcDbLine
 10
14145.12376083312
 20
440.1717384692504
 30
0.0
 11
14145.34385098177
 21
440.326233707053
 31
0.0
  0
LINE
  5
EFFC
330
1F
100
AcDbEntity
  8
D-TTL-TXT
100
AcDbLine
 10
14145.34385098177
 20
440.326233707053
 30
0.0
 11
14145.55663956152
 21
440.4864509903902
 31
0.0
  0
LINE
  5
EFFD
330
1F
100
AcDbEntity
  8
D-TTL-TXT
100
AcDbLine
 10
14145.55663956152
 20
440.4864509903902
 30
0.0
 11
14145.76184345028
 21
440.6542976686226
 31
0.0
  0
LINE
  5
EFFE
330
1F
100
AcDbEntity
  8
D-TTL-TXT
100
AcDbLine
 10
14145.76184345028
 20
440.6542976684431
 30
0.0
 11
14145.95922422948
 21
440.8259590437567
 31
0.0
  0
LINE
  5
EFFF
330
1F
100
AcDbEntity
  8
D-TTL-TXT
100
AcDbLine
 10
14145.95922422948
 20
440.8259590437567
 30
0.0
 11
14146.14854348052
 21
441.0014351161565
 31
0.0
  0
LINE
  5
F000
330
1F
100
AcDbEntity
  8
D-TTL-TXT
100
AcDbLine
 10
14146.14854348052
 20
441.0014351161565
 30
0.0
 11
14146.32956278488
 21
441.1845405830875
 31
0.0
  0
LINE
  5
F001
330
1F
100
AcDbEntity
  8
D-TTL-TXT
100
AcDbLine
 10
14146.32956278488
 20
441.1845405830875
 30
0.0
 11
14146.50207352632
 21
441.3695533986513
 31
0.0
  0
LINE
  5
F002
330
1F
100
AcDbEntity
  8
D-TTL-TXT
100
AcDbLine
 10
14146.50207352632
 20
441.3695533986513
 30
0.0
 11
14146.66585218736
 21
441.5602882601135
 31
0.0
  0
LINE
  5
F003
330
1F
100
AcDbEntity
  8
D-TTL-TXT
100
AcDbLine
 10
14146.66585218736
 20
441.5602882601135
 30
0.0
 11
14146.82070505293
 21
441.754837818662
 31
0.0
  0
LINE
  5
F004
330
1F
100
AcDbEntity
  8
D-TTL-TXT
100
AcDbLine
 10
14146.82070505293
 20
441.754837818662
 30
0.0
 11
14146.96643840795
 21
441.955109423104
 31
0.0
  0
LINE
  5
F005
330
1F
100
AcDbEntity
  8
D-TTL-TXT
100
AcDbLine
 10
14146.96643840795
 20
441.955109423104
 30
0.0
 11
14147.10288833965
 21
442.1572883761837
 31
0.0
  0
LINE
  5
F006
330
1F
100
AcDbEntity
  8
D-TTL-TXT
100
AcDbLine
 10
14147.10288833965
 20
442.1572883761837
 30
0.0
 11
14147.22987603408
 21
442.3632820265241
 31
0.0
  0
LINE
  5
F007
330
1F
100
AcDbEntity
  8
D-TTL-TXT
100
AcDbLine
 10
14147.22987603408
 20
442.3632820265241
 30
0.0
 11
14147.34725247964
 21
442.5730903739506
 31
0.0
  0
LINE
  5
F008
330
1F
100
AcDbEntity
  8
D-TTL-TXT
100
AcDbLine
 10
14147.34725247964
 20
442.5730903739506
 30
0.0
 11
14147.45486866468
 21
442.78480607001
 31
0.0
  0
LINE
  5
F009
330
1F
100
AcDbEntity
  8
D-TTL-TXT
100
AcDbLine
 10
14147.45486866468
 20
442.78480607001
 30
0.0
 11
14147.55260537997
 21
443.0003364633351
 31
0.0
  0
LINE
  5
F00A
330
1F
100
AcDbEntity
  8
D-TTL-TXT
100
AcDbLine
 10
14147.55260537997
 20
443.0003364633351
 30
0.0
 11
14147.64032851504
 21
443.2158668566601
 31
0.0
  0
LINE
  5
F00B
330
1F
100
AcDbEntity
  8
D-TTL-TXT
100
AcDbLine
 10
14147.64032851504
 20
443.2158668566601
 30
0.0
 11
14147.71793376178
 21
443.4371192958836
 31
0.0
  0
LINE
  5
F00C
330
1F
100
AcDbEntity
  8
D-TTL-TXT
100
AcDbLine
 10
14147.71793376178
 20
443.4371192958836
 30
0.0
 11
14147.78534661432
 21
443.658371735107
 31
0.0
  0
LINE
  5
F00D
330
1F
100
AcDbEntity
  8
D-TTL-TXT
100
AcDbLine
 10
14147.78534661432
 20
443.658371735107
 30
0.0
 11
14147.8424627646
 21
443.8815315229633
 31
0.0
  0
LINE
  5
F00E
330
1F
100
AcDbEntity
  8
D-TTL-TXT
100
AcDbLine
 10
14147.8424627646
 20
443.8815315229633
 30
0.0
 11
14147.88920770679
 21
444.1046913108196
 31
0.0
  0
LINE
  5
F00F
330
1F
100
AcDbEntity
  8
D-TTL-TXT
100
AcDbLine
 10
14147.88920770679
 20
444.1046913108196
 30
0.0
 11
14147.92555163859
 21
444.3316657957621
 31
0.0
  0
LINE
  5
F010
330
1F
100
AcDbEntity
  8
D-TTL-TXT
100
AcDbLine
 10
14147.92555163859
 20
444.3316657957621
 30
0.0
 11
14147.95143495532
 21
444.5567329322511
 31
0.0
  0
LINE
  5
F011
330
1F
100
AcDbEntity
  8
D-TTL-TXT
100
AcDbLine
 10
14147.95143495532
 20
444.5567329322511
 30
0.0
 11
14147.96681295352
 21
444.7837074171887
 31
0.0
  0
LINE
  5
F012
330
1F
100
AcDbEntity
  8
D-TTL-TXT
100
AcDbLine
 10
14147.96681295352
 20
444.7837074171887
 30
0.0
 11
14147.97170053437
 21
445.0030525077793
 31
0.0
  0
LINE
  5
F013
330
1F
100
AcDbEntity
  8
D-TTL-TXT
100
AcDbLine
 10
14124.13924549524
 20
439.6376808573404
 30
0.0
 11
14124.48580179768
 21
439.3458565194305
 31
0.0
  0
LINE
  5
F014
330
1F
100
AcDbEntity
  8
D-TTL-TXT
100
AcDbLine
 10
14124.48580179768
 20
439.3458565194305
 30
0.0
 11
14124.85044810957
 21
439.0616615760518
 31
0.0
  0
LINE
  5
F015
330
1F
100
AcDbEntity
  8
D-TTL-TXT
100
AcDbLine
 10
14124.85044810957
 20
439.0616615760518
 30
0.0
 11
14125.2327671985
 21
438.78509602702
 31
0.0
  0
LINE
  5
F016
330
1F
100
AcDbEntity
  8
D-TTL-TXT
100
AcDbLine
 10
14125.2327671985
 20
438.78509602702
 30
0.0
 11
14125.63225242495
 21
438.5161598725244
 31
0.0
  0
LINE
  5
F017
330
1F
100
AcDbEntity
  8
D-TTL-TXT
100
AcDbLine
 10
14125.63225242495
 20
438.5161598725244
 30
0.0
 11
14126.04845675411
 21
438.2529457639223
 31
0.0
  0
LINE
  5
F018
330
1F
100
AcDbEntity
  8
D-TTL-TXT
100
AcDbLine
 10
14126.04845675411
 20
438.2529457639223
 30
0.0
 11
14126.48084374418
 21
438.0011757467582
 31
0.0
  0
LINE
  5
F019
330
1F
100
AcDbEntity
  8
D-TTL-TXT
100
AcDbLine
 10
14126.48084374418
 20
438.0011757467582
 30
0.0
 11
14126.92889185447
 21
437.755127775672
 31
0.0
  0
LINE
  5
F01A
330
1F
100
AcDbEntity
  8
D-TTL-TXT
100
AcDbLine
 10
14126.92889185447
 20
437.755127775672
 30
0.0
 11
14127.39206464324
 21
437.5186165475654
 31
0.0
  0
LINE
  5
F01B
330
1F
100
AcDbEntity
  8
D-TTL-TXT
100
AcDbLine
 10
14127.39206464324
 20
437.5186165475654
 30
0.0
 11
14127.86979586628
 21
437.2916420624435
 31
0.0
  0
LINE
  5
F01C
330
1F
100
AcDbEntity
  8
D-TTL-TXT
100
AcDbLine
 10
14127.86979586628
 20
437.2916420624435
 30
0.0
 11
14128.36150437844
 21
437.0742043204857
 31
0.0
  0
LINE
  5
F01D
330
1F
100
AcDbEntity
  8
D-TTL-TXT
100
AcDbLine
 10
14128.36150437844
 20
437.0742043204857
 30
0.0
 11
14128.86657923205
 21
436.8663033216919
 31
0.0
  0
LINE
  5
F01E
330
1F
100
AcDbEntity
  8
D-TTL-TXT
100
AcDbLine
 10
14128.86657923205
 20
436.8663033216919
 30
0.0
 11
14129.38442438073
 21
436.6698464143312
 31
0.0
  0
LINE
  5
F01F
330
1F
100
AcDbEntity
  8
D-TTL-TXT
100
AcDbLine
 10
14148.75617215759
 20
436.7118080838893
 30
0.0
 11
14149.23765847325
 21
436.9120796883362
 31
0.0
  0
LINE
  5
F020
330
1F
100
AcDbEntity
  8
D-TTL-TXT
100
AcDbLine
 10
14149.23765847325
 20
436.9120796883362
 30
0.0
 11
14149.70707484845
 21
437.123795384575
 31
0.0
  0
LINE
  5
F021
330
1F
100
AcDbEntity
  8
D-TTL-TXT
100
AcDbLine
 10
14149.70707484845
 20
437.123795384575
 30
0.0
 11
14150.16386994033
 21
437.3431404751657
 31
0.0
  0
LINE
  5
F022
330
1F
100
AcDbEntity
  8
D-TTL-TXT
100
AcDbLine
 10
14150.16386994033
 20
437.3431404751657
 30
0.0
 11
14150.6074775046
 21
437.572022308741
 31
0.0
  0
LINE
  5
F023
330
1F
100
AcDbEntity
  8
D-TTL-TXT
100
AcDbLine
 10
14150.6074775046
 20
437.572022308741
 30
0.0
 11
14151.03736109962
 21
437.8104408854754
 31
0.0
  0
LINE
  5
F024
330
1F
100
AcDbEntity
  8
D-TTL-TXT
100
AcDbLine
 10
14151.03736109962
 20
437.8104408854754
 30
0.0
 11
14151.45298428342
 21
438.0564888565616
 31
0.0
  0
LINE
  5
F025
330
1F
100
AcDbEntity
  8
D-TTL-TXT
100
AcDbLine
 10
14151.45298428342
 20
438.0564888565616
 30
0.0
 11
14151.85385531786
 21
438.3120735708119
 31
0.0
  0
LINE
  5
F026
330
1F
100
AcDbEntity
  8
D-TTL-TXT
100
AcDbLine
 10
14151.85385531786
 20
438.3120735708119
 30
0.0
 11
14152.23946756345
 21
438.5752876795934
 31
0.0
  0
LINE
  5
F027
330
1F
100
AcDbEntity
  8
D-TTL-TXT
100
AcDbLine
 10
14152.23946756345
 20
438.5752876795934
 30
0.0
 11
14152.60937398518
 21
438.8461311827268
 31
0.0
  0
LINE
  5
F028
330
1F
100
AcDbEntity
  8
D-TTL-TXT
100
AcDbLine
 10
14152.60937398518
 20
438.8461311827268
 30
0.0
 11
14152.96311264724
 21
439.1246040803864
 31
0.0
  0
LINE
  5
F029
330
1F
100
AcDbEntity
  8
D-TTL-TXT
100
AcDbLine
 10
14152.96311264724
 20
439.1246040803864
 30
0.0
 11
14153.30025141586
 21
439.4107063723979
 31
0.0
  0
LINE
  5
F02A
330
1F
100
AcDbEntity
  8
D-TTL-TXT
100
AcDbLine
 10
14153.30025141586
 20
439.4107063723979
 30
0.0
 11
14153.62038795979
 21
439.7044380589407
 31
0.0
  0
LINE
  5
F02B
330
1F
100
AcDbEntity
  8
D-TTL-TXT
100
AcDbLine
 10
14153.62038795979
 20
439.7044380589407
 30
0.0
 11
14153.92311994754
 21
440.0038917912024
 31
0.0
  0
LINE
  5
F02C
330
1F
100
AcDbEntity
  8
D-TTL-TXT
100
AcDbLine
 10
14153.92311994754
 20
440.0038917912024
 30
0.0
 11
14154.20807485021
 21
440.3090675693577
 31
0.0
  0
LINE
  5
F02D
330
1F
100
AcDbEntity
  8
D-TTL-TXT
100
AcDbLine
 10
14154.20807485021
 20
440.3090675693577
 30
0.0
 11
14154.47492484218
 21
440.6199653934163
 31
0.0
  0
LINE
  5
F02E
330
1F
100
AcDbEntity
  8
D-TTL-TXT
100
AcDbLine
 10
14154.47492484218
 20
440.6199653934163
 30
0.0
 11
14154.72334209797
 21
440.9346779147356
 31
0.0
  0
LINE
  5
F02F
330
1F
100
AcDbEntity
  8
D-TTL-TXT
100
AcDbLine
 10
14154.72334209797
 20
440.9346779147356
 30
0.0
 11
14154.95301369315
 21
441.2570198304067
 31
0.0
  0
LINE
  5
F030
330
1F
100
AcDbEntity
  8
D-TTL-TXT
100
AcDbLine
 10
14154.95301369315
 20
441.2570198304067
 30
0.0
 11
14155.16365650564
 21
441.5831764433435
 31
0.0
  0
LINE
  5
F031
330
1F
100
AcDbEntity
  8
D-TTL-TXT
100
AcDbLine
 10
14155.16365650564
 20
441.5831764433435
 30
0.0
 11
14155.3550172158
 21
441.9131477535459
 31
0.0
  0
LINE
  5
F032
330
1F
100
AcDbEntity
  8
D-TTL-TXT
100
AcDbLine
 10
14155.3550172158
 20
441.9131477535459
 30
0.0
 11
14155.52687230619
 21
442.2469337610139
 31
0.0
  0
LINE
  5
F033
330
1F
100
AcDbEntity
  8
D-TTL-TXT
100
AcDbLine
 10
14155.52687230619
 20
442.2469337610139
 30
0.0
 11
14155.6790131604
 21
442.5845344655681
 31
0.0
  0
LINE
  5
F034
330
1F
100
AcDbEntity
  8
D-TTL-TXT
100
AcDbLine
 10
14155.6790131604
 20
442.5845344655681
 30
0.0
 11
14155.81123116237
 21
442.9240425187502
 31
0.0
  0
LINE
  5
F035
330
1F
100
AcDbEntity
  8
D-TTL-TXT
100
AcDbLine
 10
14155.81123116237
 20
442.9240425187502
 30
0.0
 11
14155.92339220158
 21
443.2673652693822
 31
0.0
  0
LINE
  5
F036
330
1F
100
AcDbEntity
  8
D-TTL-TXT
100
AcDbLine
 10
14155.92339220158
 20
443.2673652693822
 30
0.0
 11
14156.01534726636
 21
443.6106880198349
 31
0.0
  0
LINE
  5
F037
330
1F
100
AcDbEntity
  8
D-TTL-TXT
100
AcDbLine
 10
14156.01534726636
 20
443.6106880198349
 30
0.0
 11
14156.08697714753
 21
443.9578254675482
 31
0.0
  0
LINE
  5
F038
330
1F
100
AcDbEntity
  8
D-TTL-TXT
100
AcDbLine
 10
14156.08697714753
 20
443.9578254675482
 30
0.0
 11
14156.13822224033
 21
444.3049629152665
 31
0.0
  0
LINE
  5
F039
330
1F
100
AcDbEntity
  8
D-TTL-TXT
100
AcDbLine
 10
14156.13822224033
 20
444.3049629152665
 30
0.0
 11
14156.16897823679
 21
444.6540077116126
 31
0.0
  0
LINE
  5
F03A
330
1F
100
AcDbEntity
  8
D-TTL-TXT
100
AcDbLine
 10
14156.16897823679
 20
444.6540077116126
 30
0.0
 11
14156.17924513671
 21
445.0030525077793
 31
0.0
  0
LINE
  5
F03B
330
1F
100
AcDbEntity
  8
D-TTL-TXT
100
AcDbLine
 10
14156.17924513671
 20
445.0030525077793
 30
0.0
 11
14156.16899313795
 21
445.3921516250557
 31
0.0
  0
LINE
  5
F03C
330
1F
100
AcDbEntity
  8
D-TTL-TXT
100
AcDbLine
 10
14173.16038474598
 20
472.4555211053666
 30
0.0
 11
14165.89623264936
 21
472.4555211053666
 31
0.0
  0
LINE
  5
F03D
330
1F
100
AcDbEntity
  8
D-TTL-TXT
100
AcDbLine
 10
14165.22141867033
 20
507.5793458273595
 30
0.0
 11
14165.71603290886
 21
506.4826203744062
 31
0.0
  0
LINE
  5
F03E
330
1F
100
AcDbEntity
  8
D-TTL-TXT
100
AcDbLine
 10
14165.71603290886
 20
506.4826203744062
 30
0.0
 11
14166.2977146314
 21
505.4564668203238
 31
0.0
  0
LINE
  5
F03F
330
1F
100
AcDbEntity
  8
D-TTL-TXT
100
AcDbLine
 10
14166.2977146314
 20
505.4564668203238
 30
0.0
 11
14166.96576348338
 21
504.5027925133763
 31
0.0
  0
LINE
  5
F040
330
1F
100
AcDbEntity
  8
D-TTL-TXT
100
AcDbLine
 10
14166.96576348338
 20
504.5027925133763
 30
0.0
 11
14167.71931519743
 21
503.6196901052947
 31
0.0
  0
LINE
  5
F041
330
1F
100
AcDbEntity
  8
D-TTL-TXT
100
AcDbLine
 10
14167.71931519743
 20
503.6196901052947
 30
0.0
 11
14168.55749060502
 21
502.8090669443529
 31
0.0
  0
LINE
  5
F042
330
1F
100
AcDbEntity
  8
D-TTL-TXT
100
AcDbLine
 10
14168.55749060502
 20
502.8090669443529
 30
0.0
 11
14169.47926152611
 21
502.0747377281804
 31
0.0
  0
LINE
  5
F043
330
1F
100
AcDbEntity
  8
D-TTL-TXT
100
AcDbLine
 10
14169.47926152611
 20
502.0747377281804
 30
0.0
 11
14170.48351037357
 21
501.4128877591429
 31
0.0
  0
LINE
  5
F044
330
1F
100
AcDbEntity
  8
D-TTL-TXT
100
AcDbLine
 10
14170.48351037357
 20
501.4128877591429
 30
0.0
 11
14171.56897054872
 21
500.829239083323
 31
0.0
  0
LINE
  5
F045
330
1F
100
AcDbEntity
  8
D-TTL-TXT
100
AcDbLine
 10
14171.56897054872
 20
500.829239083323
 30
0.0
 11
14172.73439035405
 21
500.3199770034552
 31
0.0
  0
LINE
  5
F046
330
1F
100
AcDbEntity
  8
D-TTL-TXT
100
AcDbLine
 10
14172.73439035405
 20
500.3199770034552
 30
0.0
 11
14173.97830947571
 21
499.890823565438
 31
0.0
  0
LINE
  5
F047
330
1F
100
AcDbEntity
  8
D-TTL-TXT
100
AcDbLine
 10
14173.97830947571
 20
499.890823565438
 30
0.0
 11
14175.29920799541
 21
499.5379640718213
 31
0.0
  0
LINE
  5
F048
330
1F
100
AcDbEntity
  8
D-TTL-TXT
100
AcDbLine
 10
14175.29920799541
 20
499.5379640718213
 30
0.0
 11
14176.69550638995
 21
499.2613985229739
 31
0.0
  0
LINE
  5
F049
330
1F
100
AcDbEntity
  8
D-TTL-TXT
100
AcDbLine
 10
14176.69550638995
 20
499.2613985229739
 30
0.0
 11
14178.16544632235
 21
499.0649416156132
 31
0.0
  0
LINE
  5
F04A
330
1F
100
AcDbEntity
  8
D-TTL-TXT
100
AcDbLine
 10
14178.16544632235
 20
499.0649416156132
 30
0.0
 11
14179.7073290603
 21
498.948593350103
 31
0.0
  0
LINE
  5
F04B
330
1F
100
AcDbEntity
  8
D-TTL-TXT
100
AcDbLine
 10
14179.7073290603
 20
498.948593350103
 30
0.0
 11
14181.31915784823
 21
498.9104463779949
 31
0.0
  0
LINE
  5
F04C
330
1F
100
AcDbEntity
  8
D-TTL-TXT
100
AcDbLine
 10
14181.56711316798
 20
649.2648302503948
 30
0.0
 11
14179.534177569
 21
647.0084368403331
 31
0.0
  0
LINE
  5
F04D
330
1F
100
AcDbEntity
  8
D-TTL-TXT
100
AcDbLine
 10
14179.534177569
 20
647.0084368403331
 30
0.0
 11
14177.55628685886
 21
644.746321384373
 31
0.0
  0
LINE
  5
F04E
330
1F
100
AcDbEntity
  8
D-TTL-TXT
100
AcDbLine
 10
14177.55628685886
 20
644.746321384373
 30
0.0
 11
14175.63585502573
 21
642.486113277225
 31
0.0
  0
LINE
  5
F04F
330
1F
100
AcDbEntity
  8
D-TTL-TXT
100
AcDbLine
 10
14175.63585502573
 20
642.486113277225
 30
0.0
 11
14173.77520665072
 21
640.2278125185305
 31
0.0
  0
LINE
  5
F050
330
1F
100
AcDbEntity
  8
D-TTL-TXT
100
AcDbLine
 10
14173.77520665072
 20
640.2278125185305
 30
0.0
 11
14171.97663651255
 21
637.9752338057344
 31
0.0
  0
LINE
  5
F051
330
1F
100
AcDbEntity
  8
D-TTL-TXT
100
AcDbLine
 10
14171.97663651255
 20
637.9752338057344
 30
0.0
 11
14170.24234998323
 21
635.7302844872902
 31
0.0
  0
LINE
  5
F052
330
1F
100
AcDbEntity
  8
D-TTL-TXT
100
AcDbLine
 10
14170.24234998323
 20
635.7302844872902
 30
0.0
 11
14168.5743885217
 21
633.4967792606378
 31
0.0
  0
LINE
  5
F053
330
1F
100
AcDbEntity
  8
D-TTL-TXT
100
AcDbLine
 10
14168.5743885217
 20
633.4967792606378
 30
0.0
 11
14166.97485319161
 21
631.2785328228685
 31
0.0
  0
LINE
  5
F054
330
1F
100
AcDbEntity
  8
D-TTL-TXT
100
AcDbLine
 10
14166.97485319161
 20
631.2785328228685
 30
0.0
 11
14165.44565134176
 21
629.0736378253495
 31
0.0
  0
LINE
  5
F055
330
1F
100
AcDbEntity
  8
D-TTL-TXT
100
AcDbLine
 10
14165.44565134176
 20
629.0736378253495
 30
0.0
 11
14163.98867541942
 21
626.8897236626071
 31
0.0
  0
LINE
  5
F056
330
1F
100
AcDbEntity
  8
D-TTL-TXT
100
AcDbLine
 10
14163.98867541942
 20
626.8897236626071
 30
0.0
 11
14162.60568376168
 21
624.728697683274
 31
0.0
  0
LINE
  5
F057
330
1F
100
AcDbEntity
  8
D-TTL-TXT
100
AcDbLine
 10
14162.60568376168
 20
624.728697683274
 30
0.0
 11
14161.29836019976
 21
622.5905598871759
 31
0.0
  0
LINE
  5
F058
330
1F
100
AcDbEntity
  8
D-TTL-TXT
100
AcDbLine
 10
14161.29836019976
 20
622.5905598871759
 30
0.0
 11
14160.06831405895
 21
620.4791249717527
 31
0.0
  0
LINE
  5
F059
330
1F
100
AcDbEntity
  8
D-TTL-TXT
100
AcDbLine
 10
14160.28160927814
 20
581.3937371790573
 30
0.0
 11
14161.52552839987
 21
580.9645837410401
 31
0.0
  0
LINE
  5
F05A
330
1F
100
AcDbEntity
  8
D-TTL-TXT
100
AcDbLine
 10
14161.52552839987
 20
580.9645837410401
 30
0.0
 11
14162.84645672182
 21
580.6117242474283
 31
0.0
  0
LINE
  5
F05B
330
1F
100
AcDbEntity
  8
D-TTL-TXT
100
AcDbLine
 10
14162.84645672182
 20
580.6117242474283
 30
0.0
 11
14164.2427551164
 21
580.3351586983965
 31
0.0
  0
LINE
  5
F05C
330
1F
100
AcDbEntity
  8
D-TTL-TXT
100
AcDbLine
 10
14164.2427551164
 20
580.3351586983965
 30
0.0
 11
14165.71270994999
 21
580.1387017912202
 31
0.0
  0
LINE
  5
F05D
330
1F
100
AcDbEntity
  8
D-TTL-TXT
100
AcDbLine
 10
14165.71270994999
 20
580.1387017912202
 30
0.0
 11
14167.25457778678
 21
580.0223535258894
 31
0.0
  0
LINE
  5
F05E
330
1F
100
AcDbEntity
  8
D-TTL-TXT
100
AcDbLine
 10
14167.25457778678
 20
580.0223535258894
 30
0.0
 11
14168.86643637696
 21
579.984206553597
 31
0.0
  0
LINE
  5
F05F
330
1F
100
AcDbEntity
  8
D-TTL-TXT
100
AcDbLine
 10
14168.86643637696
 20
579.984206553597
 30
0.0
 11
14170.54633366853
 21
580.0242608745223
 31
0.0
  0
LINE
  5
F060
330
1F
100
AcDbEntity
  8
D-TTL-TXT
100
AcDbLine
 10
14170.54633366853
 20
580.0242608745223
 30
0.0
 11
14172.29227290583
 21
580.1425164884858
 31
0.0
  0
LINE
  5
F061
330
1F
100
AcDbEntity
  8
D-TTL-TXT
100
AcDbLine
 10
14172.29227290583
 20
580.1425164884858
 30
0.0
 11
14174.10204871706
 21
580.3408807442949
 31
0.0
  0
LINE
  5
F062
330
1F
100
AcDbEntity
  8
D-TTL-TXT
100
AcDbLine
 10
14174.10204871706
 20
580.3408807442949
 30
0.0
 11
14175.97348553263
 21
580.6174462933268
 31
0.0
  0
LINE
  5
F063
330
1F
100
AcDbEntity
  8
D-TTL-TXT
100
AcDbLine
 10
14175.97348553263
 20
580.6174462933268
 30
0.0
 11
14177.90431837621
 21
580.9703057869385
 31
0.0
  0
LINE
  5
F064
330
1F
100
AcDbEntity
  8
D-TTL-TXT
100
AcDbLine
 10
14177.90431837621
 20
580.9703057869385
 30
0.0
 11
14179.89219286424
 21
581.4032739222214
 31
0.0
  0
LINE
  5
F065
330
1F
100
AcDbEntity
  8
D-TTL-TXT
100
AcDbLine
 10
14139.0273978265
 20
468.9612584449787
 30
0.0
 11
14138.72654338498
 21
468.9479070047284
 31
0.0
  0
LINE
  5
F066
330
1F
100
AcDbEntity
  8
D-TTL-TXT
100
AcDbLine
 10
14138.72654338498
 20
468.9479070047284
 30
0.0
 11
14138.4264191004
 21
468.9288335185847
 31
0.0
  0
LINE
  5
F067
330
1F
100
AcDbEntity
  8
D-TTL-TXT
100
AcDbLine
 10
14138.4264191004
 20
468.9288335185847
 30
0.0
 11
14138.12741240286
 21
468.9002232892719
 31
0.0
  0
LINE
  5
F068
330
1F
100
AcDbEntity
  8
D-TTL-TXT
100
AcDbLine
 10
14138.12741240286
 20
468.9002232892719
 30
0.0
 11
14137.8298809203
 21
468.8639836656123
 31
0.0
  0
LINE
  5
F069
330
1F
100
AcDbEntity
  8
D-TTL-TXT
100
AcDbLine
 10
14137.8298809203
 20
468.8639836656123
 30
0.0
 11
14137.5341822805
 21
468.8201146476058
 31
0.0
  0
LINE
  5
F06A
330
1F
100
AcDbEntity
  8
D-TTL-TXT
100
AcDbLine
 10
14137.5341822805
 20
468.8201146476058
 30
0.0
 11
14137.24068901258
 21
468.768616235063
 31
0.0
  0
LINE
  5
F06B
330
1F
100
AcDbEntity
  8
D-TTL-TXT
100
AcDbLine
 10
14137.24068901258
 20
468.768616235063
 30
0.0
 11
14136.94975874434
 21
468.709488427994
 31
0.0
  0
LINE
  5
F06C
330
1F
100
AcDbEntity
  8
D-TTL-TXT
100
AcDbLine
 10
14136.94975874434
 20
468.709488427994
 30
0.0
 11
14136.66173420249
 21
468.6427312265732
 31
0.0
  0
LINE
  5
F06D
330
1F
100
AcDbEntity
  8
D-TTL-TXT
100
AcDbLine
 10
14136.66173420249
 20
468.6427312265732
 30
0.0
 11
14136.37697301496
 21
468.5702519792539
 31
0.0
  0
LINE
  5
F06E
330
1F
100
AcDbEntity
  8
D-TTL-TXT
100
AcDbLine
 10
14136.37697301496
 20
468.5702519792539
 30
0.0
 11
14136.09581790835
 21
468.4882359887706
 31
0.0
  0
LINE
  5
F06F
330
1F
100
AcDbEntity
  8
D-TTL-TXT
100
AcDbLine
 10
14136.09581790835
 20
468.4882359887706
 30
0.0
 11
14135.8186116094
 21
468.3985906039354
 31
0.0
  0
LINE
  5
F070
330
1F
100
AcDbEntity
  8
D-TTL-TXT
100
AcDbLine
 10
14135.8186116094
 20
468.3985906039354
 30
0.0
 11
14135.54571174602
 21
468.3032231732068
 31
0.0
  0
LINE
  5
F071
330
1F
100
AcDbEntity
  8
D-TTL-TXT
100
AcDbLine
 10
14135.54571174602
 20
468.3032231732068
 30
0.0
 11
14135.27741634145
 21
468.1983189994935
 31
0.0
  0
LINE
  5
F072
330
1F
100
AcDbEntity
  8
D-TTL-TXT
100
AcDbLine
 10
14135.27741634145
 20
468.1983189994935
 30
0.0
 11
14135.01408302345
 21
468.0876927798817
 31
0.0
  0
LINE
  5
F073
330
1F
100
AcDbEntity
  8
D-TTL-TXT
100
AcDbLine
 10
14135.01408302345
 20
468.0876927798817
 30
0.0
 11
14134.75600981529
 21
467.971344514551
 31
0.0
  0
LINE
  5
F074
330
1F
100
AcDbEntity
  8
D-TTL-TXT
100
AcDbLine
 10
14134.75600981529
 20
467.971344514551
 30
0.0
 11
14134.50353944372
 21
467.8473668545096
 31
0.0
  0
LINE
  5
F075
330
1F
100
AcDbEntity
  8
D-TTL-TXT
100
AcDbLine
 10
14134.50353944372
 20
467.8473668545096
 30
0.0
 11
14134.2569401296
 21
467.7157598003007
 31
0.0
  0
LINE
  5
F076
330
1F
100
AcDbEntity
  8
D-TTL-TXT
100
AcDbLine
 10
14134.2569401296
 20
467.7157598003007
 30
0.0
 11
14134.01653969846
 21
467.5803380486468
 31
0.0
  0
LINE
  5
F077
330
1F
100
AcDbEntity
  8
D-TTL-TXT
100
AcDbLine
 10
14134.01653969846
 20
467.5803380486468
 30
0.0
 11
14133.78262127237
 21
467.437286902641
 31
0.0
  0
LINE
  5
F078
330
1F
100
AcDbEntity
  8
D-TTL-TXT
100
AcDbLine
 10
14133.78262127237
 20
467.437286902641
 30
0.0
 11
14133.55548287454
 21
467.286606362104
 31
0.0
  0
LINE
  5
F079
330
1F
100
AcDbEntity
  8
D-TTL-TXT
100
AcDbLine
 10
14133.55548287454
 20
467.286606362104
 30
0.0
 11
14133.33539272589
 21
467.1321111244808
 31
0.0
  0
LINE
  5
F07A
330
1F
100
AcDbEntity
  8
D-TTL-TXT
100
AcDbLine
 10
14133.33539272597
 20
467.1321111244808
 30
0.0
 11
14133.12260414623
 21
466.9718938407798
 31
0.0
  0
LINE
  5
F07B
330
1F
100
AcDbEntity
  8
D-TTL-TXT
100
AcDbLine
 10
14133.12260414623
 20
466.9718938407798
 30
0.0
 11
14132.91740025746
 21
466.8040471629113
 31
0.0
  0
LINE
  5
F07C
330
1F
100
AcDbEntity
  8
D-TTL-TXT
100
AcDbLine
 10
14132.91740025746
 20
466.8040471629113
 30
0.0
 11
14132.72001947826
 21
466.6323857875977
 31
0.0
  0
LINE
  5
F07D
330
1F
100
AcDbEntity
  8
D-TTL-TXT
100
AcDbLine
 10
14132.72001947826
 20
466.6323857875977
 30
0.0
 11
14132.53070022721
 21
466.4569097151979
 31
0.0
  0
LINE
  5
F07E
330
1F
100
AcDbEntity
  8
D-TTL-TXT
100
AcDbLine
 10
14132.53070022721
 20
466.4569097151979
 30
0.0
 11
14132.34968092285
 21
466.2738042482669
 31
0.0
  0
LINE
  5
F07F
330
1F
100
AcDbEntity
  8
D-TTL-TXT
100
AcDbLine
 10
14132.34968092285
 20
466.2738042482669
 30
0.0
 11
14132.17717018138
 21
466.0887914327031
 31
0.0
  0
LINE
  5
F080
330
1F
100
AcDbEntity
  8
D-TTL-TXT
100
AcDbLine
 10
14132.17717018138
 20
466.0887914327031
 30
0.0
 11
14132.01339152034
 21
465.8980565714203
 31
0.0
  0
LINE
  5
F081
330
1F
100
AcDbEntity
  8
D-TTL-TXT
100
AcDbLine
 10
14132.01339152034
 20
465.8980565714203
 30
0.0
 11
14131.85853865481
 21
465.7035070126924
 31
0.0
  0
LINE
  5
F082
330
1F
100
AcDbEntity
  8
D-TTL-TXT
100
AcDbLine
 10
14131.85853865481
 20
465.7035070126924
 30
0.0
 11
14131.71280529979
 21
465.5032354082504
 31
0.0
  0
LINE
  5
F083
330
1F
100
AcDbEntity
  8
D-TTL-TXT
100
AcDbLine
 10
14131.71280529979
 20
465.5032354082504
 30
0.0
 11
14131.57635536813
 21
465.3010564551707
 31
0.0
  0
LINE
  5
F084
330
1F
100
AcDbEntity
  8
D-TTL-TXT
100
AcDbLine
 10
14131.57635536813
 20
465.3010564551707
 30
0.0
 11
14131.44936767363
 21
465.0950628050098
 31
0.0
  0
LINE
  5
F085
330
1F
100
AcDbEntity
  8
D-TTL-TXT
100
AcDbLine
 10
14131.44936767363
 20
465.0950628050098
 30
0.0
 11
14131.33199122811
 21
464.8852544574038
 31
0.0
  0
LINE
  5
F086
330
1F
100
AcDbEntity
  8
D-TTL-TXT
100
AcDbLine
 10
14131.33199122811
 20
464.8852544574038
 30
0.0
 11
14131.22437504306
 21
464.6735387613444
 31
0.0
  0
LINE
  5
F087
330
1F
100
AcDbEntity
  8
D-TTL-TXT
100
AcDbLine
 10
14131.22437504306
 20
464.6735387613444
 30
0.0
 11
14131.12663832773
 21
464.4580083680193
 31
0.0
  0
LINE
  5
F088
330
1F
100
AcDbEntity
  8
D-TTL-TXT
100
AcDbLine
 10
14131.12663832773
 20
464.4580083680193
 30
0.0
 11
14131.03891519269
 21
464.2424779745099
 31
0.0
  0
LINE
  5
F089
330
1F
100
AcDbEntity
  8
D-TTL-TXT
100
AcDbLine
 10
14131.03891519269
 20
464.2424779745099
 30
0.0
 11
14130.96130994597
 21
464.0212255354708
 31
0.0
  0
LINE
  5
F08A
330
1F
100
AcDbEntity
  8
D-TTL-TXT
100
AcDbLine
 10
14130.96130994597
 20
464.0212255354708
 30
0.0
 11
14130.89389709341
 21
463.7999730962474
 31
0.0
  0
LINE
  5
F08B
330
1F
100
AcDbEntity
  8
D-TTL-TXT
100
AcDbLine
 10
14130.89389709341
 20
463.7999730962474
 30
0.0
 11
14130.8367809431
 21
463.5768133083911
 31
0.0
  0
LINE
  5
F08C
330
1F
100
AcDbEntity
  8
D-TTL-TXT
100
AcDbLine
 10
14130.8367809431
 20
463.5768133083911
 30
0.0
 11
14130.79003600087
 21
463.3536535207142
 31
0.0
  0
LINE
  5
F08D
330
1F
100
AcDbEntity
  8
D-TTL-TXT
100
AcDbLine
 10
14130.79003600087
 20
463.3536535207142
 30
0.0
 11
14130.75369206909
 21
463.1266790355923
 31
0.0
  0
LINE
  5
F08E
330
1F
100
AcDbEntity
  8
D-TTL-TXT
100
AcDbLine
 10
14130.75369206909
 20
463.1266790355923
 30
0.0
 11
14130.72780875238
 21
462.9016118991033
 31
0.0
  0
LINE
  5
F08F
330
1F
100
AcDbEntity
  8
D-TTL-TXT
100
AcDbLine
 10
14130.72780875238
 20
462.9016118991033
 30
0.0
 11
14130.71243075421
 21
462.6746374141657
 31
0.0
  0
LINE
  5
F090
330
1F
100
AcDbEntity
  8
D-TTL-TXT
100
AcDbLine
 10
14130.71243075421
 20
462.6746374141657
 30
0.0
 11
14130.70754317334
 21
462.4552923235751
 31
0.0
  0
LINE
  5
F091
330
1F
100
AcDbEntity
  8
D-TTL-TXT
100
AcDbLine
 10
14154.54001311365
 20
467.820663974014
 30
0.0
 11
14146.95614170571
 21
465.5184941971286
 31
0.0
  0
LINE
  5
F092
330
1F
100
AcDbEntity
  8
D-TTL-TXT
100
AcDbLine
 10
14128.2012572926
 20
469.9549870726671
 30
0.0
 11
14151.25396437655
 21
469.9549870726671
 31
0.0
  0
LINE
  5
F093
330
1F
100
AcDbEntity
  8
D-TTL-TXT
100
AcDbLine
 10
14124.75607905668
 20
467.454453040152
 30
0.0
 11
14133.81240869331
 21
467.454453040152
 31
0.0
  0
LINE
  5
F094
330
1F
100
AcDbEntity
  8
D-TTL-TXT
100
AcDbLine
 10
14123.03472673513
 20
464.9558263562696
 30
0.0
 11
14131.36954215396
 21
464.9558263562696
 31
0.0
  0
LINE
  5
F095
330
1F
100
AcDbEntity
  8
D-TTL-TXT
100
AcDbLine
 10
14122.499998571
 20
462.4552923235751
 30
0.0
 11
14130.70754317334
 21
462.4552923235751
 31
0.0
  0
LINE
  5
F096
330
1F
100
AcDbEntity
  8
D-TTL-TXT
100
AcDbLine
 10
14122.94530486772
 20
459.9547582908756
 30
0.0
 11
14131.36955705512
 21
459.9547582908756
 31
0.0
  0
LINE
  5
F097
330
1F
100
AcDbEntity
  8
D-TTL-TXT
100
AcDbLine
 10
14144.86683501444
 20
467.454453040152
 30
0.0
 11
14153.33588009191
 21
467.454453040152
 31
0.0
  0
LINE
  5
F098
330
1F
100
AcDbEntity
  8
D-TTL-TXT
100
AcDbLine
 10
14154.53999821249
 20
467.820663974014
 30
0.0
 11
14154.19344191006
 21
468.1124883119239
 31
0.0
  0
LINE
  5
F099
330
1F
100
AcDbEntity
  8
D-TTL-TXT
100
AcDbLine
 10
14154.19344191006
 20
468.1124883119239
 30
0.0
 11
14153.82879559813
 21
468.3966832553026
 31
0.0
  0
LINE
  5
F09A
330
1F
100
AcDbEntity
  8
D-TTL-TXT
100
AcDbLine
 10
14153.82879559813
 20
468.3966832553026
 30
0.0
 11
14153.4464765092
 21
468.6732488043344
 31
0.0
  0
LINE
  5
F09B
330
1F
100
AcDbEntity
  8
D-TTL-TXT
100
AcDbLine
 10
14153.4464765092
 20
468.6732488043344
 30
0.0
 11
14153.04699128275
 21
468.94218495883
 31
0.0
  0
LINE
  5
F09C
330
1F
100
AcDbEntity
  8
D-TTL-TXT
100
AcDbLine
 10
14153.04699128275
 20
468.94218495883
 30
0.0
 11
14152.6308018548
 21
469.2053990676115
 31
0.0
  0
LINE
  5
F09D
330
1F
100
AcDbEntity
  8
D-TTL-TXT
100
AcDbLine
 10
14152.6308018548
 20
469.2053990676115
 30
0.0
 11
14152.19841486476
 21
469.4571690845962
 31
0.0
  0
LINE
  5
F09E
330
1F
100
AcDbEntity
  8
D-TTL-TXT
100
AcDbLine
 10
14152.19841486476
 20
469.4571690845962
 30
0.0
 11
14151.75035185326
 21
469.7032170556824
 31
0.0
  0
LINE
  5
F09F
330
1F
100
AcDbEntity
  8
D-TTL-TXT
100
AcDbLine
 10
14151.75035185326
 20
469.7032170556824
 30
0.0
 11
14151.28717906453
 21
469.9397282839684
 31
0.0
  0
LINE
  5
F0A0
330
1F
100
AcDbEntity
  8
D-TTL-TXT
100
AcDbLine
 10
14151.28717906453
 20
469.9397282839684
 30
0.0
 11
14150.80944784143
 21
470.1667027689109
 31
0.0
  0
LINE
  5
F0A1
330
1F
100
AcDbEntity
  8
D-TTL-TXT
100
AcDbLine
 10
14150.80944784143
 20
470.1667027689109
 30
0.0
 11
14150.31773932925
 21
470.3841405108687
 31
0.0
  0
LINE
  5
F0A2
330
1F
100
AcDbEntity
  8
D-TTL-TXT
100
AcDbLine
 10
14150.31773932925
 20
470.3841405108687
 30
0.0
 11
14149.81266447565
 21
470.5920415098419
 31
0.0
  0
LINE
  5
F0A3
330
1F
100
AcDbEntity
  8
D-TTL-TXT
100
AcDbLine
 10
14149.81266447565
 20
470.5920415098419
 30
0.0
 11
14149.29481932701
 21
470.7884984170232
 31
0.0
  0
LINE
  5
F0A4
330
1F
100
AcDbEntity
  8
D-TTL-TXT
100
AcDbLine
 10
14149.29481932701
 20
470.7884984170232
 30
0.0
 11
14148.76485953446
 21
470.9773259296683
 31
0.0
  0
LINE
  5
F0A5
330
1F
100
AcDbEntity
  8
D-TTL-TXT
100
AcDbLine
 10
14148.76485953446
 20
470.9773259296683
 30
0.0
 11
14148.22341094674
 21
471.1547093507008
 31
0.0
  0
LINE
  5
F0A6
330
1F
100
AcDbEntity
  8
D-TTL-TXT
100
AcDbLine
 10
14148.22341094674
 20
471.1547093507008
 30
0.0
 11
14147.6711292149
 21
471.3206486803003
 31
0.0
  0
LINE
  5
F0A7
330
1F
100
AcDbEntity
  8
D-TTL-TXT
100
AcDbLine
 10
14147.6711292149
 20
471.3206486803003
 30
0.0
 11
14147.10869979248
 21
471.4770512665563
 31
0.0
  0
LINE
  5
F0A8
330
1F
100
AcDbEntity
  8
D-TTL-TXT
100
AcDbLine
 10
14147.10869979248
 20
471.4770512665563
 30
0.0
 11
14146.53680813273
 21
471.6220097611949
 31
0.0
  0
LINE
  5
F0A9
330
1F
100
AcDbEntity
  8
D-TTL-TXT
100
AcDbLine
 10
14146.53680813273
 20
471.6220097611949
 30
0.0
 11
14145.95615459028
 21
471.755524164216
 31
0.0
  0
LINE
  5
F0AA
330
1F
100
AcDbEntity
  8
D-TTL-TXT
100
AcDbLine
 10
14145.95615459028
 20
471.755524164216
 30
0.0
 11
14145.36742461857
 21
471.879501824078
 31
0.0
  0
LINE
  5
F0AB
330
1F
100
AcDbEntity
  8
D-TTL-TXT
100
AcDbLine
 10
14145.36742461857
 20
471.879501824078
 30
0.0
 11
14144.77136327562
 21
471.9901280436897
 31
0.0
  0
LINE
  5
F0AC
330
1F
100
AcDbEntity
  8
D-TTL-TXT
100
AcDbLine
 10
14144.77136327562
 20
471.9901280435053
 30
0.0
 11
14144.16867091597
 21
472.0893101715046
 31
0.0
  0
LINE
  5
F0AD
330
1F
100
AcDbEntity
  8
D-TTL-TXT
100
AcDbLine
 10
14144.16867091597
 20
472.0893101715046
 30
0.0
 11
14143.56010749889
 21
472.177048207702
 31
0.0
  0
LINE
  5
F0AE
330
1F
100
AcDbEntity
  8
D-TTL-TXT
100
AcDbLine
 10
14143.56010749889
 20
472.177048207702
 30
0.0
 11
14142.94640318127
 21
472.2533421522869
 31
0.0
  0
LINE
  5
F0AF
330
1F
100
AcDbEntity
  8
D-TTL-TXT
100
AcDbLine
 10
14142.94640318127
 20
472.2533421522869
 30
0.0
 11
14142.32828811997
 21
472.3162846566265
 31
0.0
  0
LINE
  5
F0B0
330
1F
100
AcDbEntity
  8
D-TTL-TXT
100
AcDbLine
 10
14142.32828811997
 20
472.3162846566265
 30
0.0
 11
14141.70655207654
 21
472.3677830691642
 31
0.0
  0
LINE
  5
F0B1
330
1F
100
AcDbEntity
  8
D-TTL-TXT
100
AcDbLine
 10
14141.70655207654
 20
472.3677830691642
 30
0.0
 11
14141.08192520787
 21
472.4078373900895
 31
0.0
  0
LINE
  5
F0B2
330
1F
100
AcDbEntity
  8
D-TTL-TXT
100
AcDbLine
 10
14141.08192520787
 20
472.4078373900895
 30
0.0
 11
14140.45516747315
 21
472.4364476192179
 31
0.0
  0
LINE
  5
F0B3
330
1F
100
AcDbEntity
  8
D-TTL-TXT
100
AcDbLine
 10
14140.45516747315
 20
472.4364476192179
 30
0.0
 11
14139.8270537328
 21
472.451706408101
 31
0.0
  0
LINE
  5
F0B4
330
1F
100
AcDbEntity
  8
D-TTL-TXT
100
AcDbLine
 10
14139.8270537328
 20
472.451706408101
 30
0.0
 11
14139.33962185384
 21
472.4555211053666
 31
0.0
  0
LINE
  5
F0B5
330
1F
100
AcDbEntity
  8
D-TTL-TXT
100
AcDbLine
 10
14139.33962185384
 20
472.4555211053666
 30
0.0
 11
14138.75192006227
 21
472.4497990596476
 31
0.0
  0
LINE
  5
F0B6
330
1F
100
AcDbEntity
  8
D-TTL-TXT
100
AcDbLine
 10
14138.75192006227
 20
472.4497990596476
 30
0.0
 11
14138.16494842755
 21
472.4307255733195
 31
0.0
  0
LINE
  5
F0B7
330
1F
100
AcDbEntity
  8
D-TTL-TXT
100
AcDbLine
 10
14138.16494842755
 20
472.4307255733195
 30
0.0
 11
14137.5793924031
 21
472.4002079955583
 31
0.0
  0
LINE
  5
F0B8
330
1F
100
AcDbEntity
  8
D-TTL-TXT
100
AcDbLine
 10
14137.5793924031
 20
472.4002079955583
 30
0.0
 11
14136.99599704709
 21
472.3582463260002
 31
0.0
  0
LINE
  5
F0B9
330
1F
100
AcDbEntity
  8
D-TTL-TXT
100
AcDbLine
 10
14136.99599704709
 20
472.3582463260002
 30
0.0
 11
14136.41544781273
 21
472.3029332163762
 31
0.0
  0
LINE
  5
F0BA
330
1F
100
AcDbEntity
  8
D-TTL-TXT
100
AcDbLine
 10
14136.41544781273
 20
472.3029332163762
 30
0.0
 11
14135.83845995592
 21
472.236176014776
 31
0.0
  0
LINE
  5
F0BB
330
1F
100
AcDbEntity
  8
D-TTL-TXT
100
AcDbLine
 10
14135.83845995592
 20
472.236176014776
 30
0.0
 11
14135.26574873231
 21
472.1579747217377
 31
0.0
  0
LINE
  5
F0BC
330
1F
100
AcDbEntity
  8
D-TTL-TXT
100
AcDbLine
 10
14135.26574873231
 20
472.1579747217377
 30
0.0
 11
14134.69798469421
 21
472.0683293367231
 31
0.0
  0
LINE
  5
F0BD
330
1F
100
AcDbEntity
  8
D-TTL-TXT
100
AcDbLine
 10
14134.69798469421
 20
472.0683293367231
 30
0.0
 11
14134.1358830973
 21
471.9653325116426
 31
0.0
  0
LINE
  5
F0BE
330
1F
100
AcDbEntity
  8
D-TTL-TXT
100
AcDbLine
 10
14134.1358830973
 20
471.9653325116426
 30
0.0
 11
14133.58012939495
 21
471.852798943398
 31
0.0
  0
LINE
  5
F0BF
330
1F
100
AcDbEntity
  8
D-TTL-TXT
100
AcDbLine
 10
14133.58012939495
 20
471.852798943398
 30
0.0
 11
14133.03137923835
 21
471.7269139349082
 31
0.0
  0
LINE
  5
F0C0
330
1F
100
AcDbEntity
  8
D-TTL-TXT
100
AcDbLine
 10
14133.03137923835
 20
471.7269139349082
 30
0.0
 11
14132.49031808074
 21
471.5914921832493
 31
0.0
  0
LINE
  5
F0C1
330
1F
100
AcDbEntity
  8
D-TTL-TXT
100
AcDbLine
 10
14132.49031808074
 20
471.5914921832493
 30
0.0
 11
14131.95760157341
 21
471.4427189915295
 31
0.0
  0
LINE
  5
F0C2
330
1F
100
AcDbEntity
  8
D-TTL-TXT
100
AcDbLine
 10
14131.95760157341
 20
471.4427189915295
 30
0.0
 11
14131.43388536733
 21
471.2844090566407
 31
0.0
  0
LINE
  5
F0C3
330
1F
100
AcDbEntity
  8
D-TTL-TXT
100
AcDbLine
 10
14131.43388536733
 20
471.2844090566407
 30
0.0
 11
14130.91979531132
 21
471.1146550299599
 31
0.0
  0
LINE
  5
F0C4
330
1F
100
AcDbEntity
  8
D-TTL-TXT
100
AcDbLine
 10
14130.91979531132
 20
471.1146550299599
 30
0.0
 11
14130.4159721552
 21
470.9353642601102
 31
0.0
  0
LINE
  5
F0C5
330
1F
100
AcDbEntity
  8
D-TTL-TXT
100
AcDbLine
 10
14130.4159721552
 20
470.9353642602946
 30
0.0
 11
14129.9230119455
 21
470.7465367474651
 31
0.0
  0
LINE
  5
F0C6
330
1F
100
AcDbEntity
  8
D-TTL-TXT
100
AcDbLine
 10
14129.9230119455
 20
470.7465367474651
 30
0.0
 11
14129.44152562984
 21
470.5462651430182
 31
0.0
  0
LINE
  5
F0C7
330
1F
100
AcDbEntity
  8
D-TTL-TXT
100
AcDbLine
 10
14129.44152562984
 20
470.5462651430182
 30
0.0
 11
14128.97210925457
 21
470.3345494469588
 31
0.0
  0
LINE
  5
F0C8
330
1F
100
AcDbEntity
  8
D-TTL-TXT
100
AcDbLine
 10
14128.97210925457
 20
470.3345494469588
 30
0.0
 11
14128.51531416277
 21
470.1152043563681
 31
0.0
  0
LINE
  5
F0C9
330
1F
100
AcDbEntity
  8
D-TTL-TXT
100
AcDbLine
 10
14128.51531416277
 20
470.1152043563681
 30
0.0
 11
14128.07170659846
 21
469.8863225226134
 31
0.0
  0
LINE
  5
F0CA
330
1F
100
AcDbEntity
  8
D-TTL-TXT
100
AcDbLine
 10
14128.07170659846
 20
469.8863225226134
 30
0.0
 11
14127.6418230035
 21
469.6479039460585
 31
0.0
  0
LINE
  5
F0CB
330
1F
100
AcDbEntity
  8
D-TTL-TXT
100
AcDbLine
 10
14127.6418230035
 20
469.6479039460585
 30
0.0
 11
14127.2261998196
 21
469.4018559747928
 31
0.0
  0
LINE
  5
F0CC
330
1F
100
AcDbEntity
  8
D-TTL-TXT
100
AcDbLine
 10
14127.2261998196
 20
469.4018559747928
 30
0.0
 11
14126.82532878517
 21
469.1462712605425
 31
0.0
  0
LINE
  5
F0CD
330
1F
100
AcDbEntity
  8
D-TTL-TXT
100
AcDbLine
 10
14126.82532878517
 20
469.1462712605425
 30
0.0
 11
14126.43971653968
 21
468.8830571519404
 31
0.0
  0
LINE
  5
F0CE
330
1F
100
AcDbEntity
  8
D-TTL-TXT
100
AcDbLine
 10
14126.43971653968
 20
468.8830571519404
 30
0.0
 11
14126.06981011788
 21
468.6122136486276
 31
0.0
  0
LINE
  5
F0CF
330
1F
100
AcDbEntity
  8
D-TTL-TXT
100
AcDbLine
 10
14126.06981011788
 20
468.6122136486276
 30
0.0
 11
14125.71607145586
 21
468.3337407511474
 31
0.0
  0
LINE
  5
F0D0
330
1F
100
AcDbEntity
  8
D-TTL-TXT
100
AcDbLine
 10
14125.71607145586
 20
468.3337407511474
 30
0.0
 11
14125.3789326872
 21
468.0476384591359
 31
0.0
  0
LINE
  5
F0D1
330
1F
100
AcDbEntity
  8
D-TTL-TXT
100
AcDbLine
 10
14125.3789326872
 20
468.0476384591359
 30
0.0
 11
14125.05879614335
 21
467.7539067725931
 31
0.0
  0
LINE
  5
F0D2
330
1F
100
AcDbEntity
  8
D-TTL-TXT
100
AcDbLine
 10
14125.05879614335
 20
467.7539067725931
 30
0.0
 11
14124.75606415551
 21
467.454453040152
 31
0.0
  0
LINE
  5
F0D3
330
1F
100
AcDbEntity
  8
D-TTL-TXT
100
AcDbLine
 10
14124.75606415551
 20
467.454453040152
 30
0.0
 11
14124.47110925289
 21
467.1492772619967
 31
0.0
  0
LINE
  5
F0D4
330
1F
100
AcDbEntity
  8
D-TTL-TXT
100
AcDbLine
 10
14124.47110925289
 20
467.1492772619967
 30
0.0
 11
14124.20425926091
 21
466.8383794379381
 31
0.0
  0
LINE
  5
F0D5
330
1F
100
AcDbEntity
  8
D-TTL-TXT
100
AcDbLine
 10
14124.20425926091
 20
466.8383794379381
 30
0.0
 11
14123.95585690625
 21
466.521759567986
 31
0.0
  0
LINE
  5
F0D6
330
1F
100
AcDbEntity
  8
D-TTL-TXT
100
AcDbLine
 10
14123.95585690625
 20
466.521759567986
 30
0.0
 11
14123.7261853111
 21
466.2013250009477
 31
0.0
  0
LINE
  5
F0D7
330
1F
100
AcDbEntity
  8
D-TTL-TXT
100
AcDbLine
 10
14123.7261853111
 20
466.2013250009477
 30
0.0
 11
14123.51554249853
 21
465.8751683880109
 31
0.0
  0
LINE
  5
F0D8
330
1F
100
AcDbEntity
  8
D-TTL-TXT
100
AcDbLine
 10
14123.51554249853
 20
465.8751683880109
 30
0.0
 11
14123.32418178841
 21
465.5451970778085
 31
0.0
  0
LINE
  5
F0D9
330
1F
100
AcDbEntity
  8
D-TTL-TXT
100
AcDbLine
 10
14123.32418178841
 20
465.5451970778085
 30
0.0
 11
14123.15232669807
 21
465.2114110703405
 31
0.0
  0
LINE
  5
F0DA
330
1F
100
AcDbEntity
  8
D-TTL-TXT
100
AcDbLine
 10
14123.15232669807
 20
465.2114110703405
 30
0.0
 11
14123.00020074498
 21
464.8738103657863
 31
0.0
  0
LINE
  5
F0DB
330
1F
100
AcDbEntity
  8
D-TTL-TXT
100
AcDbLine
 10
14123.00020074498
 20
464.8738103657863
 30
0.0
 11
14122.86798274301
 21
464.5343023124199
 31
0.0
  0
LINE
  5
F0DC
330
1F
100
AcDbEntity
  8
D-TTL-TXT
100
AcDbLine
 10
14122.86798274301
 20
464.5343023124199
 30
0.0
 11
14122.75582170383
 21
464.1909795621516
 31
0.0
  0
LINE
  5
F0DD
330
1F
100
AcDbEntity
  8
D-TTL-TXT
100
AcDbLine
 10
14122.75582170383
 20
464.1909795621516
 30
0.0
 11
14122.66388154018
 21
463.8476568115195
 31
0.0
  0
LINE
  5
F0DE
330
1F
100
AcDbEntity
  8
D-TTL-TXT
100
AcDbLine
 10
14122.66388154018
 20
463.8476568115195
 30
0.0
 11
14122.59223675789
 21
463.5005193639856
 31
0.0
  0
LINE
  5
F0DF
330
1F
100
AcDbEntity
  8
D-TTL-TXT
100
AcDbLine
 10
14122.59223675789
 20
463.5005193639856
 30
0.0
 11
14122.54102146737
 21
463.1533819160879
 31
0.0
  0
LINE
  5
F0E0
330
1F
100
AcDbEntity
  8
D-TTL-TXT
100
AcDbLine
 10
14122.54102146737
 20
463.1533819160879
 30
0.0
 11
14122.51025056983
 21
462.8043371199212
 31
0.0
  0
LINE
  5
F0E1
330
1F
100
AcDbEntity
  8
D-TTL-TXT
100
AcDbLine
 10
14122.51025056983
 20
462.8043371199212
 30
0.0
 11
14122.499998571
 21
462.4552923235751
 31
0.0
  0
LINE
  5
F0E2
330
1F
100
AcDbEntity
  8
D-TTL-TXT
100
AcDbLine
 10
14122.499998571
 20
462.4552923235751
 30
0.0
 11
14122.51025056983
 21
462.0661932062987
 31
0.0
  0
LINE
  5
F0E3
330
1F
100
AcDbEntity
  8
D-TTL-TXT
100
AcDbLine
 10
14122.51025056983
 20
462.0661932062987
 30
0.0
 11
14122.54102146737
 21
461.6675573460427
 31
0.0
  0
LINE
  5
F0E4
330
1F
100
AcDbEntity
  8
D-TTL-TXT
100
AcDbLine
 10
14122.54102146737
 20
461.6675573460427
 30
0.0
 11
14122.59225165905
 21
461.2574773941742
 31
0.0
  0
LINE
  5
F0E5
330
1F
100
AcDbEntity
  8
D-TTL-TXT
100
AcDbLine
 10
14122.59225165905
 20
461.2574773941742
 30
0.0
 11
14122.66388154018
 21
460.8416753964022
 31
0.0
  0
LINE
  5
F0E6
330
1F
100
AcDbEntity
  8
D-TTL-TXT
100
AcDbLine
 10
14122.66388154018
 20
460.8416753964022
 30
0.0
 11
14122.75583660499
 21
460.4201513527368
 31
0.0
  0
LINE
  5
F0E7
330
1F
100
AcDbEntity
  8
D-TTL-TXT
100
AcDbLine
 10
14122.75583660499
 20
460.4201513527368
 30
0.0
 11
14122.86798274301
 21
459.9967199604336
 31
0.0
  0
LINE
  5
F0E8
330
1F
100
AcDbEntity
  8
D-TTL-TXT
100
AcDbLine
 10
14122.86798274301
 20
459.9967199604336
 30
0.0
 11
14123.00020074498
 21
459.5713812195026
 31
0.0
  0
LINE
  5
F0E9
330
1F
100
AcDbEntity
  8
D-TTL-TXT
100
AcDbLine
 10
14130.70754317334
 20
462.4552923235751
 30
0.0
 11
14130.71280328321
 21
462.2283178384532
 31
0.0
  0
LINE
  5
F0EA
330
1F
100
AcDbEntity
  8
D-TTL-TXT
100
AcDbLine
 10
14130.71280328321
 20
462.2283178384532
 30
0.0
 11
14130.72856871161
 21
462.0013433535107
 31
0.0
  0
LINE
  5
F0EB
330
1F
100
AcDbEntity
  8
D-TTL-TXT
100
AcDbLine
 10
14130.72856871161
 20
462.0013433535107
 30
0.0
 11
14130.7548394585
 21
461.7743688683888
 31
0.0
  0
LINE
  5
F0EC
330
1F
100
AcDbEntity
  8
D-TTL-TXT
100
AcDbLine
 10
14130.7548394585
 20
461.7743688683888
 30
0.0
 11
14130.79155591931
 21
461.5493017320841
 31
0.0
  0
LINE
  5
F0ED
330
1F
100
AcDbEntity
  8
D-TTL-TXT
100
AcDbLine
 10
14130.79155591931
 20
461.5493017320841
 30
0.0
 11
14130.83868829173
 21
461.324234595595
 31
0.0
  0
LINE
  5
F0EE
330
1F
100
AcDbEntity
  8
D-TTL-TXT
100
AcDbLine
 10
14130.83868829173
 20
461.324234595595
 30
0.0
 11
14130.89617697103
 21
461.1010748077387
 31
0.0
  0
LINE
  5
F0EF
330
1F
100
AcDbEntity
  8
D-TTL-TXT
100
AcDbLine
 10
14130.89617697103
 20
461.1010748077387
 30
0.0
 11
14130.96396235261
 21
460.8798223686947
 31
0.0
  0
LINE
  5
F0F0
330
1F
100
AcDbEntity
  8
D-TTL-TXT
100
AcDbLine
 10
14130.96396235261
 20
460.8798223686947
 30
0.0
 11
14131.04194012838
 21
460.660477278104
 31
0.0
  0
LINE
  5
F0F1
330
1F
100
AcDbEntity
  8
D-TTL-TXT
100
AcDbLine
 10
14131.04194012838
 20
460.660477278104
 30
0.0
 11
14131.13003579248
 21
460.4430395361462
 31
0.0
  0
LINE
  5
F0F2
330
1F
100
AcDbEntity
  8
D-TTL-TXT
100
AcDbLine
 10
14131.13003579248
 20
460.4430395361462
 30
0.0
 11
14131.2281301356
 21
460.2294164912746
 31
0.0
  0
LINE
  5
F0F3
330
1F
100
AcDbEntity
  8
D-TTL-TXT
100
AcDbLine
 10
14131.2281301356
 20
460.2294164912746
 30
0.0
 11
14131.33610394853
 21
460.0177007952152
 31
0.0
  0
LINE
  5
F0F4
330
1F
100
AcDbEntity
  8
D-TTL-TXT
100
AcDbLine
 10
14131.33610394853
 20
460.0177007952152
 30
0.0
 11
14131.4538231208
 21
459.8078924476042
 31
0.0
  0
LINE
  5
F0F5
330
1F
100
AcDbEntity
  8
D-TTL-TXT
100
AcDbLine
 10
14131.4538231208
 20
459.8078924476042
 30
0.0
 11
14131.58116844308
 21
459.6018987974432
 31
0.0
  0
LINE
  5
F0F6
330
1F
100
AcDbEntity
  8
D-TTL-TXT
100
AcDbLine
 10
14146.95614170571
 20
465.5184941971286
 30
0.0
 11
14146.80973779844
 21
465.7168584531221
 31
0.0
  0
LINE
  5
F0F7
330
1F
100
AcDbEntity
  8
D-TTL-TXT
100
AcDbLine
 10
14146.80973779844
 20
465.7168584531221
 30
0.0
 11
14146.65422928174
 21
465.9114080116705
 31
0.0
  0
LINE
  5
F0F8
330
1F
100
AcDbEntity
  8
D-TTL-TXT
100
AcDbLine
 10
14146.65422928174
 20
465.9114080116705
 30
0.0
 11
14146.48979496964
 21
466.1021428729484
 31
0.0
  0
LINE
  5
F0F9
330
1F
100
AcDbEntity
  8
D-TTL-TXT
100
AcDbLine
 10
14146.48979496964
 20
466.1021428729484
 30
0.0
 11
14146.3166732806
 21
466.2890630371451
 31
0.0
  0
LINE
  5
F0FA
330
1F
100
AcDbEntity
  8
D-TTL-TXT
100
AcDbLine
 10
14146.3166732806
 20
466.2890630371451
 30
0.0
 11
14146.13504302862
 21
466.4702611554432
 31
0.0
  0
LINE
  5
F0FB
330
1F
100
AcDbEntity
  8
D-TTL-TXT
100
AcDbLine
 10
14146.13504302862
 20
466.4702611554432
 30
0.0
 11
14145.94512773114
 21
466.645737227843
 31
0.0
  0
LINE
  5
F0FC
330
1F
100
AcDbEntity
  8
D-TTL-TXT
100
AcDbLine
 10
14145.94512773114
 20
466.645737227843
 30
0.0
 11
14145.7471658066
 21
466.8173986031615
 31
0.0
  0
LINE
  5
F0FD
330
1F
100
AcDbEntity
  8
D-TTL-TXT
100
AcDbLine
 10
14145.7471658066
 20
466.8173986031615
 30
0.0
 11
14145.54139567376
 21
466.9833379325766
 31
0.0
  0
LINE
  5
F0FE
330
1F
100
AcDbEntity
  8
D-TTL-TXT
100
AcDbLine
 10
14145.54139567376
 20
466.9833379325766
 30
0.0
 11
14145.32807065229
 21
467.1435552160983
 31
0.0
  0
LINE
  5
F0FF
330
1F
100
AcDbEntity
  8
D-TTL-TXT
100
AcDbLine
 10
14145.32807065229
 20
467.1435552160983
 30
0.0
 11
14145.107458963
 21
467.2980504537165
 31
0.0
  0
LINE
  5
F100
330
1F
100
AcDbEntity
  8
D-TTL-TXT
100
AcDbLine
 10
14145.107458963
 20
467.2980504537165
 30
0.0
 11
14144.87981392569
 21
467.4468236456207
 31
0.0
  0
LINE
  5
F101
330
1F
100
AcDbEntity
  8
D-TTL-TXT
100
AcDbLine
 10
14144.87981392569
 20
467.4468236456207
 30
0.0
 11
14144.64541866247
 21
467.5898747916265
 31
0.0
  0
LINE
  5
F102
330
1F
100
AcDbEntity
  8
D-TTL-TXT
100
AcDbLine
 10
14144.64541866247
 20
467.5898747916265
 30
0.0
 11
14144.40455629531
 21
467.7272038919181
 31
0.0
  0
LINE
  5
F103
330
1F
100
AcDbEntity
  8
D-TTL-TXT
100
AcDbLine
 10
14144.40455629531
 20
467.7272038919181
 30
0.0
 11
14144.15752484754
 21
467.8569035976736
 31
0.0
  0
LINE
  5
F104
330
1F
100
AcDbEntity
  8
D-TTL-TXT
100
AcDbLine
 10
14144.15752484754
 20
467.8569035976736
 30
0.0
 11
14143.90462234227
 21
467.9808812575356
 31
0.0
  0
LINE
  5
F105
330
1F
100
AcDbEntity
  8
D-TTL-TXT
100
AcDbLine
 10
14143.90462234227
 20
467.9808812575356
 30
0.0
 11
14143.64616170394
 21
468.0972295230458
 31
0.0
  0
LINE
  5
F106
330
1F
100
AcDbEntity
  8
D-TTL-TXT
100
AcDbLine
 10
14143.64616170394
 20
468.0972295230458
 30
0.0
 11
14143.38245585692
 21
468.2059483940247
 31
0.0
  0
LINE
  5
F107
330
1F
100
AcDbEntity
  8
D-TTL-TXT
100
AcDbLine
 10
14143.38245585692
 20
468.2059483940247
 30
0.0
 11
14143.1138177256
 21
468.3089452191052
 31
0.0
  0
LINE
  5
F108
330
1F
100
AcDbEntity
  8
D-TTL-TXT
100
AcDbLine
 10
14143.1138177256
 20
468.3089452191052
 30
0.0
 11
14142.84059003668
 21
468.4062199984666
 31
0.0
  0
LINE
  5
F109
330
1F
100
AcDbEntity
  8
D-TTL-TXT
100
AcDbLine
 10
14142.84059003668
 20
468.4062199984666
 30
0.0
 11
14142.56308571461
 21
468.493958034669
 31
0.0
  0
LINE
  5
F10A
330
1F
100
AcDbEntity
  8
D-TTL-TXT
100
AcDbLine
 10
14142.56308571461
 20
468.493958034669
 30
0.0
 11
14142.28166238707
 21
468.5740666763352
 31
0.0
  0
LINE
  5
F10B
330
1F
100
AcDbEntity
  8
D-TTL-TXT
100
AcDbLine
 10
14142.28166238707
 20
468.5740666763352
 30
0.0
 11
14141.99664787975
 21
468.6484532722873
 31
0.0
  0
LINE
  5
F10C
330
1F
100
AcDbEntity
  8
D-TTL-TXT
100
AcDbLine
 10
14141.99664787975
 20
468.6484532722873
 30
0.0
 11
14141.70839982052
 21
468.7152104738925
 31
0.0
  0
LINE
  5
F10D
330
1F
100
AcDbEntity
  8
D-TTL-TXT
100
AcDbLine
 10
14141.70839982052
 20
468.7152104738925
 30
0.0
 11
14141.41727583719
 21
468.7724309323287
 31
0.0
  0
LINE
  5
F10E
330
1F
100
AcDbEntity
  8
D-TTL-TXT
100
AcDbLine
 10
14141.41727583719
 20
468.7724309323287
 30
0.0
 11
14141.12360375529
 21
468.8239293448714
 31
0.0
  0
LINE
  5
F10F
330
1F
100
AcDbEntity
  8
D-TTL-TXT
100
AcDbLine
 10
14141.12360375529
 20
468.8239293448714
 30
0.0
 11
14140.8277710051
 21
468.8677983628779
 31
0.0
  0
LINE
  5
F110
330
1F
100
AcDbEntity
  8
D-TTL-TXT
100
AcDbLine
 10
14140.8277710051
 20
468.8677983628779
 30
0.0
 11
14140.53012031319
 21
468.9021306379047
 31
0.0
  0
LINE
  5
F111
330
1F
100
AcDbEntity
  8
D-TTL-TXT
100
AcDbLine
 10
14140.53012031319
 20
468.9021306379047
 30
0.0
 11
14140.23100930758
 21
468.9307408672175
 31
0.0
  0
LINE
  5
F112
330
1F
100
AcDbEntity
  8
D-TTL-TXT
100
AcDbLine
 10
14140.23100930758
 20
468.9307408672175
 30
0.0
 11
14139.9308254183
 21
468.9498143533612
 31
0.0
  0
LINE
  5
F113
330
1F
100
AcDbEntity
  8
D-TTL-TXT
100
AcDbLine
 10
14139.9308254183
 20
468.9498143533612
 30
0.0
 11
14139.62991137214
 21
468.9612584449787
 31
0.0
  0
LINE
  5
F114
330
1F
100
AcDbEntity
  8
D-TTL-TXT
100
AcDbLine
 10
14139.62991137214
 20
468.9612584449787
 30
0.0
 11
14139.32865459934
 21
468.9650731422443
 31
0.0
  0
LINE
  5
F115
330
1F
100
AcDbEntity
  8
D-TTL-TXT
100
AcDbLine
 10
14139.32865459934
 20
468.9650731422443
 30
0.0
 11
14139.0273978265
 21
468.9612584449787
 31
0.0
  0
LINE
  5
F116
330
1F
100
AcDbEntity
  8
D-TTL-TXT
100
AcDbLine
 10
14158.91702055429
 20
618.3982076342702
 30
0.0
 11
14157.84591019725
 21
616.3497152230022
 31
0.0
  0
LINE
  5
F117
330
1F
100
AcDbEntity
  8
D-TTL-TXT
100
AcDbLine
 10
14157.84591019725
 20
616.3497152230022
 30
0.0
 11
14156.85624958645
 21
614.3355550869455
 31
0.0
  0
LINE
  5
F118
330
1F
100
AcDbEntity
  8
D-TTL-TXT
100
AcDbLine
 10
14156.85624958645
 20
614.3355550869455
 30
0.0
 11
14155.94929041949
 21
612.3576345745434
 31
0.0
  0
LINE
  5
F119
330
1F
100
AcDbEntity
  8
D-TTL-TXT
100
AcDbLine
 10
14155.94929041949
 20
612.3576345745434
 30
0.0
 11
14155.12610557987
 21
610.4197683828872
 31
0.0
  0
LINE
  5
F11A
330
1F
100
AcDbEntity
  8
D-TTL-TXT
100
AcDbLine
 10
14155.12610557987
 20
610.4197683828872
 30
0.0
 11
14154.38769344543
 21
608.5238638609735
 31
0.0
  0
LINE
  5
F11B
330
1F
100
AcDbEntity
  8
D-TTL-TXT
100
AcDbLine
 10
14154.38769344543
 20
608.5238638607891
 30
0.0
 11
14153.73499278936
 21
606.6718283568818
 31
0.0
  0
LINE
  5
F11C
330
1F
100
AcDbEntity
  8
D-TTL-TXT
100
AcDbLine
 10
14153.73499278936
 20
606.6718283568818
 30
0.0
 11
14153.16874866963
 21
604.8655692197983
 31
0.0
  0
LINE
  5
F11D
330
1F
100
AcDbEntity
  8
D-TTL-TXT
100
AcDbLine
 10
14153.16874866963
 20
604.8655692197983
 30
0.0
 11
14152.68969124317
 21
603.1089011464403
 31
0.0
  0
LINE
  5
F11E
330
1F
100
AcDbEntity
  8
D-TTL-TXT
100
AcDbLine
 10
14152.68969124317
 20
603.1089011464403
 30
0.0
 11
14152.29837185303
 21
601.4037314858044
 31
0.0
  0
LINE
  5
F11F
330
1F
100
AcDbEntity
  8
D-TTL-TXT
100
AcDbLine
 10
14152.29837185303
 20
601.4037314858044
 30
0.0
 11
14151.99529713853
 21
599.7500602377113
 31
0.0
  0
LINE
  5
F120
330
1F
100
AcDbEntity
  8
D-TTL-TXT
100
AcDbLine
 10
14151.99529713853
 20
599.7500602377113
 30
0.0
 11
14151.78082472758
 21
598.1517020994215
 31
0.0
  0
LINE
  5
F121
330
1F
100
AcDbEntity
  8
D-TTL-TXT
100
AcDbLine
 10
14151.78082472758
 20
598.1517020994215
 30
0.0
 11
14151.65520794003
 21
596.6086570709351
 31
0.0
  0
LINE
  5
F122
330
1F
100
AcDbEntity
  8
D-TTL-TXT
100
AcDbLine
 10
14151.65520794003
 20
596.6086570709351
 30
0.0
 11
14151.61861068849
 21
595.1266471979761
 31
0.0
  0
LINE
  5
F123
330
1F
100
AcDbEntity
  8
D-TTL-TXT
100
AcDbLine
 10
14151.61861068849
 20
595.1266471979761
 30
0.0
 11
14151.67106277531
 21
593.7037651322655
 31
0.0
  0
LINE
  5
F124
330
1F
100
AcDbEntity
  8
D-TTL-TXT
100
AcDbLine
 10
14151.67106277531
 20
593.7037651322655
 30
0.0
 11
14151.81251949718
 21
592.3438255705307
 31
0.0
  0
LINE
  5
F125
330
1F
100
AcDbEntity
  8
D-TTL-TXT
100
AcDbLine
 10
14151.81251949718
 20
592.3438255705307
 30
0.0
 11
14152.04278713878
 21
591.0468285133149
 31
0.0
  0
LINE
  5
F126
330
1F
100
AcDbEntity
  8
D-TTL-TXT
100
AcDbLine
 10
14152.04278713878
 20
591.0468285133149
 30
0.0
 11
14152.36161238052
 21
589.8165886573406
 31
0.0
  0
LINE
  5
F127
330
1F
100
AcDbEntity
  8
D-TTL-TXT
100
AcDbLine
 10
14152.36161238052
 20
589.8165886573406
 30
0.0
 11
14152.76859289093
 21
588.6531060029665
 31
0.0
  0
LINE
  5
F128
330
1F
100
AcDbEntity
  8
D-TTL-TXT
100
AcDbLine
 10
14152.76859289093
 20
588.6531060029665
 30
0.0
 11
14153.26322203065
 21
587.5563805500132
 31
0.0
  0
LINE
  5
F129
330
1F
100
AcDbEntity
  8
D-TTL-TXT
100
AcDbLine
 10
14153.26322203065
 20
587.5563805500132
 30
0.0
 11
14153.8449037532
 21
586.5302269959259
 31
0.0
  0
LINE
  5
F12A
330
1F
100
AcDbEntity
  8
D-TTL-TXT
100
AcDbLine
 10
14153.8449037532
 20
586.5302269959259
 30
0.0
 11
14154.51293770402
 21
585.5765526889784
 31
0.0
  0
LINE
  5
F12B
330
1F
100
AcDbEntity
  8
D-TTL-TXT
100
AcDbLine
 10
14154.51293770402
 20
585.5765526889784
 30
0.0
 11
14155.26650431922
 21
584.6934502809017
 31
0.0
  0
LINE
  5
F12C
330
1F
100
AcDbEntity
  8
D-TTL-TXT
100
AcDbLine
 10
14155.26650431922
 20
584.6934502809017
 30
0.0
 11
14156.10469462801
 21
583.88282711996
 31
0.0
  0
LINE
  5
F12D
330
1F
100
AcDbEntity
  8
D-TTL-TXT
100
AcDbLine
 10
14156.10469462801
 20
583.88282711996
 30
0.0
 11
14157.02646554906
 21
583.1484979037825
 31
0.0
  0
LINE
  5
F12E
330
1F
100
AcDbEntity
  8
D-TTL-TXT
100
AcDbLine
 10
14157.02646554906
 20
583.1484979037825
 30
0.0
 11
14158.03069949536
 21
582.4866479347449
 31
0.0
  0
LINE
  5
F12F
330
1F
100
AcDbEntity
  8
D-TTL-TXT
100
AcDbLine
 10
14158.03069949536
 20
582.4866479347449
 30
0.0
 11
14159.11620437397
 21
581.9029992589251
 31
0.0
  0
LINE
  5
F130
330
1F
100
AcDbEntity
  8
D-TTL-TXT
100
AcDbLine
 10
14160.06831405895
 20
620.4791249719321
 30
0.0
 11
14158.91702055429
 21
618.3982076342702
 31
0.0
  0
LINE
  5
F131
330
1F
100
AcDbEntity
  8
D-TTL-TXT
100
AcDbLine
 10
14159.11620437397
 20
581.9029992589251
 30
0.0
 11
14160.28160927814
 21
581.3937371790573
 31
0.0
  0
LINE
  5
F132
330
1F
100
AcDbEntity
  8
D-TTL-TXT
100
AcDbLine
 10
14173.39624032298
 20
456.8896490686893
 30
0.0
 11
14173.39624032298
 21
453.399201105567
 31
0.0
  0
LINE
  5
F133
330
1F
100
AcDbEntity
  8
D-TTL-TXT
100
AcDbLine
 10
14175.89623791384
 20
456.8896490686893
 30
0.0
 11
14175.89623791384
 21
453.399201105567
 31
0.0
  0
LINE
  5
F134
330
1F
100
AcDbEntity
  8
D-TTL-TXT
100
AcDbLine
 10
14178.39623550466
 20
456.8896490686893
 30
0.0
 11
14178.39623550466
 21
453.399201105567
 31
0.0
  0
LINE
  5
F135
330
1F
100
AcDbEntity
  8
D-TTL-TXT
100
AcDbLine
 10
14180.89623309544
 20
456.8896490686893
 30
0.0
 11
14180.89623309544
 21
453.399201105567
 31
0.0
  0
LINE
  5
F136
330
1F
100
AcDbEntity
  8
D-TTL-TXT
100
AcDbLine
 10
14124.36045323095
 20
457.4542242583604
 30
0.0
 11
14133.81242359447
 21
457.4542242583604
 31
0.0
  0
LINE
  5
F137
330
1F
100
AcDbEntity
  8
D-TTL-TXT
100
AcDbLine
 10
14127.07669647087
 20
454.9555975742987
 30
0.0
 11
14146.34057474293
 21
454.9555975742987
 31
0.0
  0
LINE
  5
F138
330
1F
100
AcDbEntity
  8
D-TTL-TXT
100
AcDbLine
 10
14132.49972071335
 20
452.4550635415992
 30
0.0
 11
14151.67046672894
 21
452.4550635415992
 31
0.0
  0
LINE
  5
F139
330
1F
100
AcDbEntity
  8
D-TTL-TXT
100
AcDbLine
 10
14144.94102789523
 20
449.9545295090841
 30
0.0
 11
14154.35586456544
 21
449.9545295090841
 31
0.0
  0
LINE
  5
F13A
330
1F
100
AcDbEntity
  8
D-TTL-TXT
100
AcDbLine
 10
14147.33543585891
 20
447.4559028252017
 30
0.0
 11
14155.75080695434
 21
447.4559028252017
 31
0.0
  0
LINE
  5
F13B
330
1F
100
AcDbEntity
  8
D-TTL-TXT
100
AcDbLine
 10
14123.15234159923
 20
459.1498571758322
 30
0.0
 11
14123.32419668957
 21
458.7302404809791
 31
0.0
  0
LINE
  5
F13C
330
1F
100
AcDbEntity
  8
D-TTL-TXT
100
AcDbLine
 10
14123.32419668957
 20
458.7302404809791
 30
0.0
 11
14123.51555739969
 21
458.3163458316605
 31
0.0
  0
LINE
  5
F13D
330
1F
100
AcDbEntity
  8
D-TTL-TXT
100
AcDbLine
 10
14123.51555739969
 20
458.3163458316605
 30
0.0
 11
14123.72620021226
 21
457.9100805770576
 31
0.0
  0
LINE
  5
F13E
330
1F
100
AcDbEntity
  8
D-TTL-TXT
100
AcDbLine
 10
14123.72620021226
 20
457.9100805770576
 30
0.0
 11
14123.95585690625
 21
457.51335206525
 31
0.0
  0
LINE
  5
F13F
330
1F
100
AcDbEntity
  8
D-TTL-TXT
100
AcDbLine
 10
14123.95585690625
 20
457.51335206525
 30
0.0
 11
14124.20427416201
 21
457.1280676454237
 31
0.0
  0
LINE
  5
F140
330
1F
100
AcDbEntity
  8
D-TTL-TXT
100
AcDbLine
 10
14124.20427416201
 20
457.1280676454237
 30
0.0
 11
14124.47112415405
 21
456.7523199683976
 31
0.0
  0
LINE
  5
F141
330
1F
100
AcDbEntity
  8
D-TTL-TXT
100
AcDbLine
 10
14124.47112415405
 20
456.7523199683976
 30
0.0
 11
14124.75607905668
 21
456.391831080434
 31
0.0
  0
LINE
  5
F142
330
1F
100
AcDbEntity
  8
D-TTL-TXT
100
AcDbLine
 10
14124.75607905668
 20
456.391831080434
 30
0.0
 11
14125.05881104451
 21
456.0427862840879
 31
0.0
  0
LINE
  5
F143
330
1F
100
AcDbEntity
  8
D-TTL-TXT
100
AcDbLine
 10
14125.05881104451
 20
456.0427862842673
 30
0.0
 11
14125.37894758836
 21
455.7109076254321
 31
0.0
  0
LINE
  5
F144
330
1F
100
AcDbEntity
  8
D-TTL-TXT
100
AcDbLine
 10
14125.37894758836
 20
455.7109076254321
 30
0.0
 11
14125.71608635702
 21
455.3923804068472
 31
0.0
  0
LINE
  5
F145
330
1F
100
AcDbEntity
  8
D-TTL-TXT
100
AcDbLine
 10
14125.71608635702
 20
455.3923804068472
 30
0.0
 11
14126.06982501904
 21
455.0891119773198
 31
0.0
  0
LINE
  5
F146
330
1F
100
AcDbEntity
  8
D-TTL-TXT
100
AcDbLine
 10
14126.06982501904
 20
455.0891119773198
 30
0.0
 11
14126.43973144084
 21
454.8030096853083
 31
0.0
  0
LINE
  5
F147
330
1F
100
AcDbEntity
  8
D-TTL-TXT
100
AcDbLine
 10
14126.43973144084
 20
454.8030096853083
 30
0.0
 11
14126.82535858749
 21
454.5302588333627
 31
0.0
  0
LINE
  5
F148
330
1F
100
AcDbEntity
  8
D-TTL-TXT
100
AcDbLine
 10
14126.82535858749
 20
454.5302588333627
 30
0.0
 11
14127.22621472076
 21
454.272766770664
 31
0.0
  0
LINE
  5
F149
330
1F
100
AcDbEntity
  8
D-TTL-TXT
100
AcDbLine
 10
14127.22621472076
 20
454.272766770664
 30
0.0
 11
14127.64185280583
 21
454.030533496659
 31
0.0
  0
LINE
  5
F14A
330
1F
100
AcDbEntity
  8
D-TTL-TXT
100
AcDbLine
 10
14127.64185280583
 20
454.030533496659
 30
0.0
 11
14128.07172149962
 21
453.8035590115371
 31
0.0
  0
LINE
  5
F14B
330
1F
100
AcDbEntity
  8
D-TTL-TXT
100
AcDbLine
 10
14128.07172149962
 20
453.8035590115371
 30
0.0
 11
14128.51532906393
 21
453.5899359668449
 31
0.0
  0
LINE
  5
F14C
330
1F
100
AcDbEntity
  8
D-TTL-TXT
100
AcDbLine
 10
14128.51532906393
 20
453.5899359668449
 30
0.0
 11
14128.97212415573
 21
453.3877570137701
 31
0.0
  0
LINE
  5
F14D
330
1F
100
AcDbEntity
  8
D-TTL-TXT
100
AcDbLine
 10
14128.97212415573
 20
453.3877570137701
 30
0.0
 11
14129.441540531
 21
453.1989295011201
 31
0.0
  0
LINE
  5
F14E
330
1F
100
AcDbEntity
  8
D-TTL-TXT
100
AcDbLine
 10
14129.441540531
 20
453.1989295011201
 30
0.0
 11
14129.92302684666
 21
453.0234534285409
 31
0.0
  0
LINE
  5
F14F
330
1F
100
AcDbEntity
  8
D-TTL-TXT
100
AcDbLine
 10
14129.92302684666
 20
453.0234534285409
 30
0.0
 11
14130.41598705637
 21
452.8575140991208
 31
0.0
  0
LINE
  5
F150
330
1F
100
AcDbEntity
  8
D-TTL-TXT
100
AcDbLine
 10
14130.41598705637
 20
452.8575140991208
 30
0.0
 11
14130.91981021248
 21
452.7030188615026
 31
0.0
  0
LINE
  5
F151
330
1F
100
AcDbEntity
  8
D-TTL-TXT
100
AcDbLine
 10
14130.91981021248
 20
452.7030188615026
 30
0.0
 11
14131.43390026849
 21
452.5580603668641
 31
0.0
  0
LINE
  5
F152
330
1F
100
AcDbEntity
  8
D-TTL-TXT
100
AcDbLine
 10
14131.43390026849
 20
452.5580603668641
 30
0.0
 11
14131.95761647457
 21
452.4226386152052
 31
0.0
  0
LINE
  5
F153
330
1F
100
AcDbEntity
  8
D-TTL-TXT
100
AcDbLine
 10
14131.95761647457
 20
452.4226386152052
 30
0.0
 11
14132.49031808074
 21
452.2967536067153
 31
0.0
  0
LINE
  5
F154
330
1F
100
AcDbEntity
  8
D-TTL-TXT
100
AcDbLine
 10
14132.49031808074
 20
452.2967536067153
 30
0.0
 11
14133.03137923835
 21
452.1804053413846
 31
0.0
  0
LINE
  5
F155
330
1F
100
AcDbEntity
  8
D-TTL-TXT
100
AcDbLine
 10
14133.03137923835
 20
452.1804053413846
 30
0.0
 11
14133.58011449378
 21
452.0716864704056
 31
0.0
  0
LINE
  5
F156
330
1F
100
AcDbEntity
  8
D-TTL-TXT
100
AcDbLine
 10
14133.58011449378
 20
452.0716864704056
 30
0.0
 11
14134.13586819614
 21
451.9725043424114
 31
0.0
  0
LINE
  5
F157
330
1F
100
AcDbEntity
  8
D-TTL-TXT
100
AcDbLine
 10
14134.13586819614
 20
451.9725043424114
 30
0.0
 11
14134.69796979305
 21
451.8809516089434
 31
0.0
  0
LINE
  5
F158
330
1F
100
AcDbEntity
  8
D-TTL-TXT
100
AcDbLine
 10
14134.69796979305
 20
451.8809516089434
 30
0.0
 11
14135.26571892999
 21
451.8008429670929
 31
0.0
  0
LINE
  5
F159
330
1F
100
AcDbEntity
  8
D-TTL-TXT
100
AcDbLine
 10
14135.26571892999
 20
451.8008429670929
 30
0.0
 11
14135.83844505476
 21
451.7264563713252
 31
0.0
  0
LINE
  5
F15A
330
1F
100
AcDbEntity
  8
D-TTL-TXT
100
AcDbLine
 10
14135.83844505476
 20
451.7264563713252
 30
0.0
 11
14136.41541801041
 21
451.6635138669855
 31
0.0
  0
LINE
  5
F15B
330
1F
100
AcDbEntity
  8
D-TTL-TXT
100
AcDbLine
 10
14136.41541801041
 20
451.6635138669855
 30
0.0
 11
14136.99596724476
 21
451.6120154544478
 31
0.0
  0
LINE
  5
F15C
330
1F
100
AcDbEntity
  8
D-TTL-TXT
100
AcDbLine
 10
14136.99596724476
 20
451.6120154544478
 30
0.0
 11
14137.57936260078
 21
451.5681464362569
 31
0.0
  0
LINE
  5
F15D
330
1F
100
AcDbEntity
  8
D-TTL-TXT
100
AcDbLine
 10
14137.57936260078
 20
451.5681464362569
 30
0.0
 11
14138.16490372407
 21
451.5376288584957
 31
0.0
  0
LINE
  5
F15E
330
1F
100
AcDbEntity
  8
D-TTL-TXT
100
AcDbLine
 10
14138.16490372407
 20
451.5376288584957
 30
0.0
 11
14138.75189025995
 21
451.518555372347
 31
0.0
  0
LINE
  5
F15F
330
1F
100
AcDbEntity
  8
D-TTL-TXT
100
AcDbLine
 10
14138.75189025995
 20
451.518555372347
 30
0.0
 11
14139.33957715036
 21
451.5128333264486
 31
0.0
  0
LINE
  5
F160
330
1F
100
AcDbEntity
  8
D-TTL-TXT
100
AcDbLine
 10
14147.95067499613
 20
445.4570014778437
 30
0.0
 11
14147.92440424917
 21
445.6839759629656
 31
0.0
  0
LINE
  5
F161
330
1F
100
AcDbEntity
  8
D-TTL-TXT
100
AcDbLine
 10
14147.92440424917
 20
445.6839759629656
 30
0.0
 11
14147.88768778835
 21
445.9090430992703
 31
0.0
  0
LINE
  5
F162
330
1F
100
AcDbEntity
  8
D-TTL-TXT
100
AcDbLine
 10
14147.88768778835
 20
445.9090430992703
 30
0.0
 11
14147.84055541601
 21
446.1341102357594
 31
0.0
  0
LINE
  5
F163
330
1F
100
AcDbEntity
  8
D-TTL-TXT
100
AcDbLine
 10
14147.84055541601
 20
446.1341102357594
 30
0.0
 11
14147.78306673671
 21
446.3572700236157
 31
0.0
  0
LINE
  5
F164
330
1F
100
AcDbEntity
  8
D-TTL-TXT
100
AcDbLine
 10
14147.78306673671
 20
446.3572700236157
 30
0.0
 11
14147.71528135508
 21
446.5785224628391
 31
0.0
  0
LINE
  5
F165
330
1F
100
AcDbEntity
  8
D-TTL-TXT
100
AcDbLine
 10
14147.71528135508
 20
446.5785224628391
 30
0.0
 11
14147.63730357936
 21
446.7978675534298
 31
0.0
  0
LINE
  5
F166
330
1F
100
AcDbEntity
  8
D-TTL-TXT
100
AcDbLine
 10
14147.63730357936
 20
446.7978675534298
 30
0.0
 11
14147.54922281642
 21
447.0153052953876
 31
0.0
  0
LINE
  5
F167
330
1F
100
AcDbEntity
  8
D-TTL-TXT
100
AcDbLine
 10
14147.54922281642
 20
447.0153052953876
 30
0.0
 11
14147.45111357206
 21
447.2289283400798
 31
0.0
  0
LINE
  5
F168
330
1F
100
AcDbEntity
  8
D-TTL-TXT
100
AcDbLine
 10
14147.45111357206
 20
447.2289283400798
 30
0.0
 11
14147.34313975915
 21
447.4406440361392
 31
0.0
  0
LINE
  5
F169
330
1F
100
AcDbEntity
  8
D-TTL-TXT
100
AcDbLine
 10
14147.34313975915
 20
447.4406440361392
 30
0.0
 11
14147.22542058691
 21
447.6504523837502
 31
0.0
  0
LINE
  5
F16A
330
1F
100
AcDbEntity
  8
D-TTL-TXT
100
AcDbLine
 10
14147.22542058691
 20
447.6504523837502
 30
0.0
 11
14147.09807526462
 21
447.8564460340906
 31
0.0
  0
LINE
  5
F16B
330
1F
100
AcDbEntity
  8
D-TTL-TXT
100
AcDbLine
 10
14147.09807526462
 20
447.8564460340906
 30
0.0
 11
14146.9612975074
 21
448.0586249869859
 31
0.0
  0
LINE
  5
F16C
330
1F
100
AcDbEntity
  8
D-TTL-TXT
100
AcDbLine
 10
14146.9612975074
 20
448.0586249869859
 30
0.0
 11
14146.81522142567
 21
448.2569892428
 31
0.0
  0
LINE
  5
F16D
330
1F
100
AcDbEntity
  8
D-TTL-TXT
100
AcDbLine
 10
14146.81522142567
 20
448.2569892429794
 30
0.0
 11
14146.66004073454
 21
448.4534461499763
 31
0.0
  0
LINE
  5
F16E
330
1F
100
AcDbEntity
  8
D-TTL-TXT
100
AcDbLine
 10
14146.66004073454
 20
448.4534461499763
 30
0.0
 11
14146.49593424798
 21
448.6422736628058
 31
0.0
  0
LINE
  5
F16F
330
1F
100
AcDbEntity
  8
D-TTL-TXT
100
AcDbLine
 10
14146.49593424798
 20
448.6422736628058
 30
0.0
 11
14146.32312548336
 21
448.8291938270024
 31
0.0
  0
LINE
  5
F170
330
1F
100
AcDbEntity
  8
D-TTL-TXT
100
AcDbLine
 10
14146.32312548336
 20
448.8291938270024
 30
0.0
 11
14146.14179325454
 21
449.0103919453006
 31
0.0
  0
LINE
  5
F171
330
1F
100
AcDbEntity
  8
D-TTL-TXT
100
AcDbLine
 10
14146.14179325454
 20
449.0103919453006
 30
0.0
 11
14145.95217598027
 21
449.1877753663332
 31
0.0
  0
LINE
  5
F172
330
1F
100
AcDbEntity
  8
D-TTL-TXT
100
AcDbLine
 10
14145.95217598027
 20
449.1877753663332
 30
0.0
 11
14145.75451207904
 21
449.3594367416517
 31
0.0
  0
LINE
  5
F173
330
1F
100
AcDbEntity
  8
D-TTL-TXT
100
AcDbLine
 10
14145.75451207904
 20
449.3594367416517
 30
0.0
 11
14145.54902506821
 21
449.5253760710668
 31
0.0
  0
LINE
  5
F174
330
1F
100
AcDbEntity
  8
D-TTL-TXT
100
AcDbLine
 10
14145.54902506821
 20
449.5253760710668
 30
0.0
 11
14145.33596826761
 21
449.6855933545885
 31
0.0
  0
LINE
  5
F175
330
1F
100
AcDbEntity
  8
D-TTL-TXT
100
AcDbLine
 10
14145.33596826761
 20
449.6855933545885
 30
0.0
 11
14145.11560989805
 21
449.8400885922067
 31
0.0
  0
LINE
  5
F176
330
1F
100
AcDbEntity
  8
D-TTL-TXT
100
AcDbLine
 10
14145.11560989805
 20
449.8400885922067
 30
0.0
 11
14144.88821818054
 21
449.9888617841109
 31
0.0
  0
LINE
  5
F177
330
1F
100
AcDbEntity
  8
D-TTL-TXT
100
AcDbLine
 10
14144.88821818054
 20
449.9888617841109
 30
0.0
 11
14144.65406133586
 21
450.1319129301166
 31
0.0
  0
LINE
  5
F178
330
1F
100
AcDbEntity
  8
D-TTL-TXT
100
AcDbLine
 10
14144.65406133586
 20
450.1319129301166
 30
0.0
 11
14144.4134373873
 21
450.2692420304083
 31
0.0
  0
LINE
  5
F179
330
1F
100
AcDbEntity
  8
D-TTL-TXT
100
AcDbLine
 10
14144.4134373873
 20
450.2692420304083
 30
0.0
 11
14144.16661455576
 21
450.3989417361638
 31
0.0
  0
LINE
  5
F17A
330
1F
100
AcDbEntity
  8
D-TTL-TXT
100
AcDbLine
 10
14144.16661455576
 20
450.3989417361638
 30
0.0
 11
14143.91392066674
 21
450.5229193960258
 31
0.0
  0
LINE
  5
F17B
330
1F
100
AcDbEntity
  8
D-TTL-TXT
100
AcDbLine
 10
14143.91392066674
 20
450.5229193960258
 30
0.0
 11
14143.65565374352
 21
450.6411750099844
 31
0.0
  0
LINE
  5
F17C
330
1F
100
AcDbEntity
  8
D-TTL-TXT
100
AcDbLine
 10
14143.65565374352
 20
450.6411750099844
 30
0.0
 11
14143.39214161162
 21
450.7498938809633
 31
0.0
  0
LINE
  5
F17D
330
1F
100
AcDbEntity
  8
D-TTL-TXT
100
AcDbLine
 10
14143.39214161162
 20
450.7498938809633
 30
0.0
 11
14143.12368229421
 21
450.8528907062282
 31
0.0
  0
LINE
  5
F17E
330
1F
100
AcDbEntity
  8
D-TTL-TXT
100
AcDbLine
 10
14143.12368229421
 20
450.8528907062282
 30
0.0
 11
14142.85060361694
 21
450.9501654854102
 31
0.0
  0
LINE
  5
F17F
330
1F
100
AcDbEntity
  8
D-TTL-TXT
100
AcDbLine
 10
14142.85060361694
 20
450.9501654854102
 30
0.0
 11
14142.5732483064
 21
451.0379035216076
 31
0.0
  0
LINE
  5
F180
330
1F
100
AcDbEntity
  8
D-TTL-TXT
100
AcDbLine
 10
14142.5732483064
 20
451.0379035216076
 30
0.0
 11
14142.29195908934
 21
451.119919512091
 31
0.0
  0
LINE
  5
F181
330
1F
100
AcDbEntity
  8
D-TTL-TXT
100
AcDbLine
 10
14142.29195908934
 20
451.119919512091
 30
0.0
 11
14142.00707869252
 21
451.194306108043
 31
0.0
  0
LINE
  5
F182
330
1F
100
AcDbEntity
  8
D-TTL-TXT
100
AcDbLine
 10
14142.00707869252
 20
451.194306108043
 30
0.0
 11
14141.71894984254
 21
451.2610633094639
 31
0.0
  0
LINE
  5
F183
330
1F
100
AcDbEntity
  8
D-TTL-TXT
100
AcDbLine
 10
14141.71894984254
 20
451.2610633094639
 30
0.0
 11
14141.42791526618
 21
451.3182837679051
 31
0.0
  0
LINE
  5
F184
330
1F
100
AcDbEntity
  8
D-TTL-TXT
100
AcDbLine
 10
14141.42791526618
 20
451.3182837679051
 30
0.0
 11
14141.13433259129
 21
451.3697821804428
 31
0.0
  0
LINE
  5
F185
330
1F
100
AcDbEntity
  8
D-TTL-TXT
100
AcDbLine
 10
14141.13433259129
 20
451.3697821804428
 30
0.0
 11
14140.83855944569
 21
451.4136511986337
 31
0.0
  0
LINE
  5
F186
330
1F
100
AcDbEntity
  8
D-TTL-TXT
100
AcDbLine
 10
14140.83855944569
 20
451.4136511986337
 30
0.0
 11
14140.54096835843
 21
451.4498908222933
 31
0.0
  0
LINE
  5
F187
330
1F
100
AcDbEntity
  8
D-TTL-TXT
100
AcDbLine
 10
14140.54096835843
 20
451.4498908222933
 30
0.0
 11
14140.24191695745
 21
451.4765937027889
 31
0.0
  0
LINE
  5
F188
330
1F
100
AcDbEntity
  8
D-TTL-TXT
100
AcDbLine
 10
14140.24191695745
 20
451.4765937027889
 30
0.0
 11
14139.94176287055
 21
451.4975745375704
 31
0.0
  0
LINE
  5
F189
330
1F
100
AcDbEntity
  8
D-TTL-TXT
100
AcDbLine
 10
14139.94176287055
 20
451.4975745375704
 30
0.0
 11
14139.6408786267
 21
451.5090186291829
 31
0.0
  0
LINE
  5
F18A
330
1F
100
AcDbEntity
  8
D-TTL-TXT
100
AcDbLine
 10
14139.6408786267
 20
451.5090186291829
 30
0.0
 11
14139.33962185384
 21
451.5128333264486
 31
0.0
  0
LINE
  5
F18B
330
1F
100
AcDbEntity
  8
D-TTL-TXT
100
AcDbLine
 10
14156.13822224033
 20
445.7907874853117
 30
0.0
 11
14156.08699204869
 21
446.2008674371802
 31
0.0
  0
LINE
  5
F18C
330
1F
100
AcDbEntity
  8
D-TTL-TXT
100
AcDbLine
 10
14156.08699204869
 20
446.2008674371802
 30
0.0
 11
14156.01536216753
 21
446.6166694351316
 31
0.0
  0
LINE
  5
F18D
330
1F
100
AcDbEntity
  8
D-TTL-TXT
100
AcDbLine
 10
14156.01536216753
 20
446.6166694351316
 30
0.0
 11
14155.92342200391
 21
447.0381934786176
 31
0.0
  0
LINE
  5
F18E
330
1F
100
AcDbEntity
  8
D-TTL-TXT
100
AcDbLine
 10
14155.92342200391
 20
447.0381934786176
 30
0.0
 11
14155.81126096469
 21
447.4616248709208
 31
0.0
  0
LINE
  5
F18F
330
1F
100
AcDbEntity
  8
D-TTL-TXT
100
AcDbLine
 10
14155.81126096469
 20
447.4616248709208
 30
0.0
 11
14155.67904296273
 21
447.8869636118518
 31
0.0
  0
LINE
  5
F190
330
1F
100
AcDbEntity
  8
D-TTL-TXT
100
AcDbLine
 10
14155.67904296273
 20
447.8869636118518
 30
0.0
 11
14155.52690210851
 21
448.3084876553378
 31
0.0
  0
LINE
  5
F191
330
1F
100
AcDbEntity
  8
D-TTL-TXT
100
AcDbLine
 10
14155.52690210851
 20
448.3084876553378
 30
0.0
 11
14155.35506191929
 21
448.7281043505547
 31
0.0
  0
LINE
  5
F192
330
1F
100
AcDbEntity
  8
D-TTL-TXT
100
AcDbLine
 10
14155.35506191929
 20
448.7281043505547
 30
0.0
 11
14155.16368630797
 21
449.1419989996939
 31
0.0
  0
LINE
  5
F193
330
1F
100
AcDbEntity
  8
D-TTL-TXT
100
AcDbLine
 10
14155.16368630797
 20
449.1419989996939
 30
0.0
 11
14154.95304349548
 21
449.5482642542968
 31
0.0
  0
LINE
  5
F194
330
1F
100
AcDbEntity
  8
D-TTL-TXT
100
AcDbLine
 10
14154.95304349548
 20
449.5482642542968
 30
0.0
 11
14154.72338680146
 21
449.94499276592
 31
0.0
  0
LINE
  5
F195
330
1F
100
AcDbEntity
  8
D-TTL-TXT
100
AcDbLine
 10
14154.72338680146
 20
449.94499276592
 30
0.0
 11
14154.47498444683
 21
450.3302771861101
 31
0.0
  0
LINE
  5
F196
330
1F
100
AcDbEntity
  8
D-TTL-TXT
100
AcDbLine
 10
14154.47498444683
 20
450.3302771861101
 30
0.0
 11
14154.20813445486
 21
450.7060248629568
 31
0.0
  0
LINE
  5
F197
330
1F
100
AcDbEntity
  8
D-TTL-TXT
100
AcDbLine
 10
14154.20813445486
 20
450.7060248629568
 30
0.0
 11
14153.92316465103
 21
451.0665137509204
 31
0.0
  0
LINE
  5
F198
330
1F
100
AcDbEntity
  8
D-TTL-TXT
100
AcDbLine
 10
14153.92316465103
 20
451.0665137509204
 30
0.0
 11
14153.62043266327
 21
451.4155585472665
 31
0.0
  0
LINE
  5
F199
330
1F
100
AcDbEntity
  8
D-TTL-TXT
100
AcDbLine
 10
14153.62043266327
 20
451.4155585472665
 30
0.0
 11
14153.30029611934
 21
451.7474372061017
 31
0.0
  0
LINE
  5
F19A
330
1F
100
AcDbEntity
  8
D-TTL-TXT
100
AcDbLine
 10
14153.30029611934
 20
451.7474372061017
 30
0.0
 11
14152.96317225188
 21
452.0659644245072
 31
0.0
  0
LINE
  5
F19B
330
1F
100
AcDbEntity
  8
D-TTL-TXT
100
AcDbLine
 10
14152.96317225188
 20
452.0659644245072
 30
0.0
 11
14152.60943358982
 21
452.3692328540346
 31
0.0
  0
LINE
  5
F19C
330
1F
100
AcDbEntity
  8
D-TTL-TXT
100
AcDbLine
 10
14152.60943358982
 20
452.3692328540346
 30
0.0
 11
14152.2395271681
 21
452.6553351462255
 31
0.0
  0
LINE
  5
F19D
330
1F
100
AcDbEntity
  8
D-TTL-TXT
100
AcDbLine
 10
14152.2395271681
 20
452.6553351462255
 30
0.0
 11
14151.85390002135
 21
452.9280859978073
 31
0.0
  0
LINE
  5
F19E
330
1F
100
AcDbEntity
  8
D-TTL-TXT
100
AcDbLine
 10
14151.85390002135
 20
452.9280859978073
 30
0.0
 11
14151.45302898691
 21
453.1855780606904
 31
0.0
  0
LINE
  5
F19F
330
1F
100
AcDbEntity
  8
D-TTL-TXT
100
AcDbLine
 10
14151.45302898691
 20
453.1855780606904
 30
0.0
 11
14151.03740580311
 21
453.4278113346954
 31
0.0
  0
LINE
  5
F1A0
330
1F
100
AcDbEntity
  8
D-TTL-TXT
100
AcDbLine
 10
14151.03740580311
 20
453.4278113346954
 30
0.0
 11
14150.60753710924
 21
453.6547858196329
 31
0.0
  0
LINE
  5
F1A1
330
1F
100
AcDbEntity
  8
D-TTL-TXT
100
AcDbLine
 10
14150.60753710924
 20
453.6547858198173
 30
0.0
 11
14150.16392954498
 21
453.8684088645095
 31
0.0
  0
LINE
  5
F1A2
330
1F
100
AcDbEntity
  8
D-TTL-TXT
100
AcDbLine
 10
14150.16392954498
 20
453.8684088645095
 30
0.0
 11
14149.70713445309
 21
454.0705878175843
 31
0.0
  0
LINE
  5
F1A3
330
1F
100
AcDbEntity
  8
D-TTL-TXT
100
AcDbLine
 10
14149.70713445309
 20
454.0705878175843
 30
0.0
 11
14149.23770317674
 21
454.2594153304137
 31
0.0
  0
LINE
  5
F1A4
330
1F
100
AcDbEntity
  8
D-TTL-TXT
100
AcDbLine
 10
14149.23770317674
 20
454.2594153304137
 30
0.0
 11
14148.75621686107
 21
454.4348914028135
 31
0.0
  0
LINE
  5
F1A5
330
1F
100
AcDbEntity
  8
D-TTL-TXT
100
AcDbLine
 10
14148.75621686107
 20
454.4348914028135
 30
0.0
 11
14148.26327155254
 21
454.6008307322336
 31
0.0
  0
LINE
  5
F1A6
330
1F
100
AcDbEntity
  8
D-TTL-TXT
100
AcDbLine
 10
14148.26327155254
 20
454.6008307320492
 30
0.0
 11
14147.7594334953
 21
454.7553259698518
 31
0.0
  0
LINE
  5
F1A7
330
1F
100
AcDbEntity
  8
D-TTL-TXT
100
AcDbLine
 10
14147.7594334953
 20
454.7553259698518
 30
0.0
 11
14147.24534343925
 21
454.9002844644904
 31
0.0
  0
LINE
  5
F1A8
330
1F
100
AcDbEntity
  8
D-TTL-TXT
100
AcDbLine
 10
14147.24534343925
 20
454.9002844644904
 30
0.0
 11
14146.72162723317
 21
455.0357062161492
 31
0.0
  0
LINE
  5
F1A9
330
1F
100
AcDbEntity
  8
D-TTL-TXT
100
AcDbLine
 10
14146.72162723317
 20
455.0357062161492
 30
0.0
 11
14146.18891072579
 21
455.1615912246391
 31
0.0
  0
LINE
  5
F1AA
330
1F
100
AcDbEntity
  8
D-TTL-TXT
100
AcDbLine
 10
14146.18891072579
 20
455.1615912246391
 30
0.0
 11
14145.64784956827
 21
455.2779394901492
 31
0.0
  0
LINE
  5
F1AB
330
1F
100
AcDbEntity
  8
D-TTL-TXT
100
AcDbLine
 10
14145.64784956827
 20
455.2779394901492
 30
0.0
 11
14145.0991143128
 21
455.3866583611282
 31
0.0
  0
LINE
  5
F1AC
330
1F
100
AcDbEntity
  8
D-TTL-TXT
100
AcDbLine
 10
14145.0991143128
 20
455.3866583611282
 30
0.0
 11
14144.54334570928
 21
455.485840488943
 31
0.0
  0
LINE
  5
F1AD
330
1F
100
AcDbEntity
  8
D-TTL-TXT
100
AcDbLine
 10
14144.54334570928
 20
455.485840488943
 30
0.0
 11
14143.9812441124
 21
455.577393222411
 31
0.0
  0
LINE
  5
F1AE
330
1F
100
AcDbEntity
  8
D-TTL-TXT
100
AcDbLine
 10
14143.9812441124
 20
455.577393222411
 30
0.0
 11
14143.41349497536
 21
455.6575018640772
 31
0.0
  0
LINE
  5
F1AF
330
1F
100
AcDbEntity
  8
D-TTL-TXT
100
AcDbLine
 10
14143.41349497536
 20
455.6575018640772
 30
0.0
 11
14142.84076885062
 21
455.7318884600292
 31
0.0
  0
LINE
  5
F1B0
330
1F
100
AcDbEntity
  8
D-TTL-TXT
100
AcDbLine
 10
14142.84076885062
 20
455.7318884600292
 30
0.0
 11
14142.26378099382
 21
455.7948309643689
 31
0.0
  0
LINE
  5
F1B1
330
1F
100
AcDbEntity
  8
D-TTL-TXT
100
AcDbLine
 10
14142.26378099382
 20
455.7948309643689
 30
0.0
 11
14141.68323175952
 21
455.8463293769066
 31
0.0
  0
LINE
  5
F1B2
330
1F
100
AcDbEntity
  8
D-TTL-TXT
100
AcDbLine
 10
14141.68323175952
 20
455.8463293769066
 30
0.0
 11
14141.09983640344
 21
455.8901983950975
 31
0.0
  0
LINE
  5
F1B3
330
1F
100
AcDbEntity
  8
D-TTL-TXT
100
AcDbLine
 10
14141.09983640344
 20
455.8901983950975
 30
0.0
 11
14140.51428037903
 21
455.9207159728587
 31
0.0
  0
LINE
  5
F1B4
330
1F
100
AcDbEntity
  8
D-TTL-TXT
100
AcDbLine
 10
14140.51428037903
 20
455.9207159728587
 30
0.0
 11
14139.9273087443
 21
455.9397894590074
 31
0.0
  0
LINE
  5
F1B5
330
1F
100
AcDbEntity
  8
D-TTL-TXT
100
AcDbLine
 10
14139.9273087443
 20
455.9397894590074
 30
0.0
 11
14139.33962185384
 21
455.9455115049058
 31
0.0
  0
LINE
  5
F1B6
330
1F
100
AcDbEntity
  8
D-TTL-TXT
100
AcDbLine
 10
14131.71794620034
 20
459.3997198443685
 30
0.0
 11
14131.86402228207
 21
459.2013555885544
 31
0.0
  0
LINE
  5
F1B7
330
1F
100
AcDbEntity
  8
D-TTL-TXT
100
AcDbLine
 10
14131.86402228207
 20
459.2013555885544
 30
0.0
 11
14132.01920297317
 21
459.0048986811937
 31
0.0
  0
LINE
  5
F1B8
330
1F
100
AcDbEntity
  8
D-TTL-TXT
100
AcDbLine
 10
14132.01920297317
 20
459.0048986811937
 30
0.0
 11
14132.18330945977
 21
458.8160711685486
 31
0.0
  0
LINE
  5
F1B9
330
1F
100
AcDbEntity
  8
D-TTL-TXT
100
AcDbLine
 10
14132.18330945977
 20
458.8160711685486
 30
0.0
 11
14132.35613312554
 21
458.629151004352
 31
0.0
  0
LINE
  5
F1BA
330
1F
100
AcDbEntity
  8
D-TTL-TXT
100
AcDbLine
 10
14132.35613312554
 20
458.629151004352
 30
0.0
 11
14132.53745045313
 21
458.4479528860538
 31
0.0
  0
LINE
  5
F1BB
330
1F
100
AcDbEntity
  8
D-TTL-TXT
100
AcDbLine
 10
14132.53745045313
 20
458.4479528860538
 30
0.0
 11
14132.72706772743
 21
458.2705694650212
 31
0.0
  0
LINE
  5
F1BC
330
1F
100
AcDbEntity
  8
D-TTL-TXT
100
AcDbLine
 10
14132.72706772743
 20
458.2705694650212
 30
0.0
 11
14132.92474652987
 21
458.0989080897027
 31
0.0
  0
LINE
  5
F1BD
330
1F
100
AcDbEntity
  8
D-TTL-TXT
100
AcDbLine
 10
14132.92474652987
 20
458.0989080897027
 30
0.0
 11
14133.13023354069
 21
457.932968760467
 31
0.0
  0
LINE
  5
F1BE
330
1F
100
AcDbEntity
  8
D-TTL-TXT
100
AcDbLine
 10
14133.13023354069
 20
457.932968760467
 30
0.0
 11
14133.34329034129
 21
457.7727514767659
 31
0.0
  0
LINE
  5
F1BF
330
1F
100
AcDbEntity
  8
D-TTL-TXT
100
AcDbLine
 10
14133.34329034129
 20
457.7727514767659
 30
0.0
 11
14133.56364871081
 21
457.6182562391477
 31
0.0
  0
LINE
  5
F1C0
330
1F
100
AcDbEntity
  8
D-TTL-TXT
100
AcDbLine
 10
14133.56364871081
 20
457.6182562391477
 30
0.0
 11
14133.79104042837
 21
457.4694830472435
 31
0.0
  0
LINE
  5
F1C1
330
1F
100
AcDbEntity
  8
D-TTL-TXT
100
AcDbLine
 10
14133.79104042837
 20
457.4694830472435
 30
0.0
 11
14134.02519727304
 21
457.3264319012378
 31
0.0
  0
LINE
  5
F1C2
330
1F
100
AcDbEntity
  8
D-TTL-TXT
100
AcDbLine
 10
14134.02519727304
 20
457.3264319012378
 30
0.0
 11
14134.2658212216
 21
457.1891028009461
 31
0.0
  0
LINE
  5
F1C3
330
1F
100
AcDbEntity
  8
D-TTL-TXT
100
AcDbLine
 10
14134.2658212216
 20
457.1891028009461
 30
0.0
 11
14134.51262915198
 21
457.05940309537
 31
0.0
  0
LINE
  5
F1C4
330
1F
100
AcDbEntity
  8
D-TTL-TXT
100
AcDbLine
 10
14134.51262915198
 20
457.05940309537
 30
0.0
 11
14134.76532304095
 21
456.9354254353286
 31
0.0
  0
LINE
  5
F1C5
330
1F
100
AcDbEntity
  8
D-TTL-TXT
100
AcDbLine
 10
14134.76532304095
 20
456.9354254353286
 30
0.0
 11
14135.02358996423
 21
456.81716982137
 31
0.0
  0
LINE
  5
F1C6
330
1F
100
AcDbEntity
  8
D-TTL-TXT
100
AcDbLine
 10
14135.02358996423
 20
456.81716982137
 30
0.0
 11
14135.28710209616
 21
456.7084509503911
 31
0.0
  0
LINE
  5
F1C7
330
1F
100
AcDbEntity
  8
D-TTL-TXT
100
AcDbLine
 10
14135.28710209616
 20
456.7084509503911
 30
0.0
 11
14135.55556141346
 21
456.6054541251262
 31
0.0
  0
LINE
  5
F1C8
330
1F
100
AcDbEntity
  8
D-TTL-TXT
100
AcDbLine
 10
14135.55556141346
 20
456.6054541251262
 30
0.0
 11
14135.8286400908
 21
456.5081793459442
 31
0.0
  0
LINE
  5
F1C9
330
1F
100
AcDbEntity
  8
D-TTL-TXT
100
AcDbLine
 10
14135.8286400908
 20
456.5081793459442
 30
0.0
 11
14136.10598050014
 21
456.4204413095624
 31
0.0
  0
LINE
  5
F1CA
330
1F
100
AcDbEntity
  8
D-TTL-TXT
100
AcDbLine
 10
14136.10598050014
 20
456.4204413095624
 30
0.0
 11
14136.38726971723
 21
456.3384253192634
 31
0.0
  0
LINE
  5
F1CB
330
1F
100
AcDbEntity
  8
D-TTL-TXT
100
AcDbLine
 10
14136.38726971723
 20
456.3384253192634
 30
0.0
 11
14136.67215011406
 21
456.2640387233114
 31
0.0
  0
LINE
  5
F1CC
330
1F
100
AcDbEntity
  8
D-TTL-TXT
100
AcDbLine
 10
14136.67215011406
 20
456.2640387233114
 30
0.0
 11
14136.96029386524
 21
456.1972815218905
 31
0.0
  0
LINE
  5
F1CD
330
1F
100
AcDbEntity
  8
D-TTL-TXT
100
AcDbLine
 10
14136.96029386524
 20
456.1972815218905
 30
0.0
 11
14137.2513284416
 21
456.1400610634493
 31
0.0
  0
LINE
  5
F1CE
330
1F
100
AcDbEntity
  8
D-TTL-TXT
100
AcDbLine
 10
14137.2513284416
 20
456.1400610634493
 30
0.0
 11
14137.54489621529
 21
456.0885626509116
 31
0.0
  0
LINE
  5
F1CF
330
1F
100
AcDbEntity
  8
D-TTL-TXT
100
AcDbLine
 10
14137.54489621529
 20
456.0885626509116
 30
0.0
 11
14137.84065445972
 21
456.0446936327207
 31
0.0
  0
LINE
  5
F1D0
330
1F
100
AcDbEntity
  8
D-TTL-TXT
100
AcDbLine
 10
14137.84065445972
 20
456.0446936327207
 30
0.0
 11
14138.1382455469
 21
456.0084540090611
 31
0.0
  0
LINE
  5
F1D1
330
1F
100
AcDbEntity
  8
D-TTL-TXT
100
AcDbLine
 10
14138.1382455469
 20
456.0084540090611
 30
0.0
 11
14138.43731184912
 21
455.9817511285655
 31
0.0
  0
LINE
  5
F1D2
330
1F
100
AcDbEntity
  8
D-TTL-TXT
100
AcDbLine
 10
14138.43731184912
 20
455.9817511285655
 30
0.0
 11
14138.7374510349
 21
455.960770293784
 31
0.0
  0
LINE
  5
F1D3
330
1F
100
AcDbEntity
  8
D-TTL-TXT
100
AcDbLine
 10
14138.7374510349
 20
455.960770293784
 30
0.0
 11
14139.03835017983
 21
455.9493262019871
 31
0.0
  0
LINE
  5
F1D4
330
1F
100
AcDbEntity
  8
D-TTL-TXT
100
AcDbLine
 10
14139.03835017983
 20
455.9493262019871
 30
0.0
 11
14139.33959205152
 21
455.9455115049058
 31
0.0
  0
LINE
  5
F1D5
330
1F
100
AcDbEntity
  8
D-TTL-TXT
100
AcDbLine
 10
14173.16038474598
 20
456.8896490686893
 30
0.0
 11
14173.16038474598
 21
472.4555211053666
 31
0.0
  0
LINE
  5
F1D6
330
1F
100
AcDbEntity
  8
D-TTL-TXT
100
AcDbLine
 10
14123.00020074498
 20
459.5713812195026
 30
0.0
 11
14123.15234159923
 21
459.1498571758322
 31
0.0
  0
LINE
  5
F1D7
330
1F
100
AcDbEntity
  8
D-TTL-TXT
100
AcDbLine
 10
14131.58116844308
 20
459.6018987974432
 30
0.0
 11
14131.71794620034
 21
459.3997198443685
 31
0.0
  0
LINE
  5
F1D8
330
1F
100
AcDbEntity
  8
D-TTL-TXT
100
AcDbLine
 10
14192.46865357679
 20
660.4190049435758
 30
0.0
 11
14190.1988789241
 21
658.2160172946896
 31
0.0
  0
LINE
  5
F1D9
330
1F
100
AcDbEntity
  8
D-TTL-TXT
100
AcDbLine
 10
14332.77992312589
 20
435.0028237259878
 30
0.0
 11
14329.63527150598
 21
446.7940528561642
 31
0.0
  0
LINE
  5
F1DA
330
1F
100
AcDbEntity
  8
D-TTL-TXT
100
AcDbLine
 10
14313.51829492916
 20
446.7940528561642
 30
0.0
 11
14310.37364330926
 21
435.0028237259878
 31
0.0
  0
LINE
  5
F1DB
330
1F
100
AcDbEntity
  8
D-TTL-TXT
100
AcDbLine
 10
14240.32760657417
 20
444.9382026549913
 30
0.0
 11
14240.54716028095
 21
445.5199439821783
 31
0.0
  0
LINE
  5
F1DC
330
1F
100
AcDbEntity
  8
D-TTL-TXT
100
AcDbLine
 10
14248.58824401326
 20
472.4555211053666
 30
0.0
 11
14256.91107889863
 21
435.0028237259878
 31
0.0
  0
LINE
  5
F1DD
330
1F
100
AcDbEntity
  8
D-TTL-TXT
100
AcDbLine
 10
14267.60760913377
 20
435.0028237259878
 30
0.0
 11
14274.14850357676
 21
459.5313268987568
 31
0.0
  0
LINE
  5
F1DE
330
1F
100
AcDbEntity
  8
D-TTL-TXT
100
AcDbLine
 10
14279.29053662546
 20
459.5313268987568
 30
0.0
 11
14284.74126212633
 21
435.0028237259878
 31
0.0
  0
LINE
  5
F1DF
330
1F
100
AcDbEntity
  8
D-TTL-TXT
100
AcDbLine
 10
14295.43779236148
 20
435.0028237259878
 30
0.0
 11
14305.42520614483
 21
472.4555211053666
 31
0.0
  0
LINE
  5
F1E0
330
1F
100
AcDbEntity
  8
D-TTL-TXT
100
AcDbLine
 10
14306.27290339431
 20
435.0028237259878
 30
0.0
 11
14316.26031717765
 21
472.4555211053666
 31
0.0
  0
LINE
  5
F1E1
330
1F
100
AcDbEntity
  8
D-TTL-TXT
100
AcDbLine
 10
14331.28685659154
 20
472.4555211053666
 30
0.0
 11
14341.27427037485
 21
435.0028237259878
 31
0.0
  0
LINE
  5
F1E2
330
1F
100
AcDbEntity
  8
D-TTL-TXT
100
AcDbLine
 10
14341.27427037485
 20
435.0028237259878
 30
0.0
 11
14332.77992312589
 21
435.0028237259878
 31
0.0
  0
LINE
  5
F1E3
330
1F
100
AcDbEntity
  8
D-TTL-TXT
100
AcDbLine
 10
14310.37364330926
 20
435.0028237259878
 30
0.0
 11
14306.27290339431
 21
435.0028237259878
 31
0.0
  0
LINE
  5
F1E4
330
1F
100
AcDbEntity
  8
D-TTL-TXT
100
AcDbLine
 10
14308.92697899038
 20
444.9553687925072
 30
0.0
 11
14313.02771890525
 21
444.9553687925072
 31
0.0
  0
LINE
  5
F1E5
330
1F
100
AcDbEntity
  8
D-TTL-TXT
100
AcDbLine
 10
14308.26033084752
 20
442.4548347598077
 30
0.0
 11
14312.36104096006
 21
442.4548347598077
 31
0.0
  0
LINE
  5
F1E6
330
1F
100
AcDbEntity
  8
D-TTL-TXT
100
AcDbLine
 10
14307.5936529024
 20
439.9543007272925
 30
0.0
 11
14311.69439281727
 21
439.9543007272925
 31
0.0
  0
LINE
  5
F1E7
330
1F
100
AcDbEntity
  8
D-TTL-TXT
100
AcDbLine
 10
14306.92700475961
 20
437.4556740432308
 30
0.0
 11
14311.02771487215
 21
437.4556740432308
 31
0.0
  0
LINE
  5
F1E8
330
1F
100
AcDbEntity
  8
D-TTL-TXT
100
AcDbLine
 10
14330.12584752989
 20
444.9553687925072
 30
0.0
 11
14338.62019477885
 21
444.9553687925072
 31
0.0
  0
LINE
  5
F1E9
330
1F
100
AcDbEntity
  8
D-TTL-TXT
100
AcDbLine
 10
14330.79249567268
 20
442.4548347598077
 30
0.0
 11
14339.28687272401
 21
442.4548347598077
 31
0.0
  0
LINE
  5
F1EA
330
1F
100
AcDbEntity
  8
D-TTL-TXT
100
AcDbLine
 10
14331.45917361788
 20
439.9543007272925
 30
0.0
 11
14339.95352086684
 21
439.9543007272925
 31
0.0
  0
LINE
  5
F1EB
330
1F
100
AcDbEntity
  8
D-TTL-TXT
100
AcDbLine
 10
14332.12582176068
 20
437.4556740432308
 30
0.0
 11
14340.62019881196
 21
437.4556740432308
 31
0.0
  0
LINE
  5
F1EC
330
1F
100
AcDbEntity
  8
D-TTL-TXT
100
AcDbLine
 10
14237.93424169176
 20
440.7210548700434
 30
0.0
 11
14238.30453554375
 21
441.1978920235172
 31
0.0
  0
LINE
  5
F1ED
330
1F
100
AcDbEntity
  8
D-TTL-TXT
100
AcDbLine
 10
14238.30453554375
 20
441.1978920235172
 30
0.0
 11
14238.65244785182
 21
441.6918953143224
 31
0.0
  0
LINE
  5
F1EE
330
1F
100
AcDbEntity
  8
D-TTL-TXT
100
AcDbLine
 10
14238.65244785182
 20
441.6918953143224
 30
0.0
 11
14238.97902169728
 21
442.1992500455574
 31
0.0
  0
LINE
  5
F1EF
330
1F
100
AcDbEntity
  8
D-TTL-TXT
100
AcDbLine
 10
14238.97902169728
 20
442.1992500455574
 30
0.0
 11
14239.28527035907
 21
442.7218635658548
 31
0.0
  0
LINE
  5
F1F0
330
1F
100
AcDbEntity
  8
D-TTL-TXT
100
AcDbLine
 10
14239.28527035907
 20
442.7218635658548
 30
0.0
 11
14239.57223691846
 21
443.2578285262182
 31
0.0
  0
LINE
  5
F1F1
330
1F
100
AcDbEntity
  8
D-TTL-TXT
100
AcDbLine
 10
14239.57223691846
 20
443.2578285262182
 30
0.0
 11
14239.84096445678
 21
443.8052375783784
 31
0.0
  0
LINE
  5
F1F2
330
1F
100
AcDbEntity
  8
D-TTL-TXT
100
AcDbLine
 10
14239.84096445678
 20
443.8052375783784
 30
0.0
 11
14240.09246625286
 21
444.3659980707889
 31
0.0
  0
LINE
  5
F1F3
330
1F
100
AcDbEntity
  8
D-TTL-TXT
100
AcDbLine
 10
14240.09246625286
 20
444.3659980707889
 30
0.0
 11
14240.32760657417
 21
444.9382026549913
 31
0.0
  0
LINE
  5
F1F4
330
1F
100
AcDbEntity
  8
D-TTL-TXT
100
AcDbLine
 10
14254.69935916935
 20
444.9553687925072
 30
0.0
 11
14270.2617145321
 21
444.9553687925072
 31
0.0
  0
LINE
  5
F1F5
330
1F
100
AcDbEntity
  8
D-TTL-TXT
100
AcDbLine
 10
14255.25490425545
 20
442.4548347598077
 30
0.0
 11
14269.59503658698
 21
442.4548347598077
 31
0.0
  0
LINE
  5
F1F6
330
1F
100
AcDbEntity
  8
D-TTL-TXT
100
AcDbLine
 10
14255.81044934155
 20
439.9543007272925
 30
0.0
 11
14268.92835864183
 21
439.9543007272925
 31
0.0
  0
LINE
  5
F1F7
330
1F
100
AcDbEntity
  8
D-TTL-TXT
100
AcDbLine
 10
14256.36602422994
 20
437.4556740432308
 30
0.0
 11
14268.26171049899
 21
437.4556740432308
 31
0.0
  0
LINE
  5
F1F8
330
1F
100
AcDbEntity
  8
D-TTL-TXT
100
AcDbLine
 10
14284.74126212633
 20
435.0028237259878
 30
0.0
 11
14295.43779236148
 21
435.0028237259878
 31
0.0
  0
LINE
  5
F1F9
330
1F
100
AcDbEntity
  8
D-TTL-TXT
100
AcDbLine
 10
14284.19620745764
 20
437.4556740432308
 30
0.0
 11
14296.0918937267
 21
437.4556740432308
 31
0.0
  0
LINE
  5
F1FA
330
1F
100
AcDbEntity
  8
D-TTL-TXT
100
AcDbLine
 10
14256.91107889863
 20
435.0028237259878
 30
0.0
 11
14267.60760913377
 21
435.0028237259878
 31
0.0
  0
LINE
  5
F1FB
330
1F
100
AcDbEntity
  8
D-TTL-TXT
100
AcDbLine
 10
14282.52954239707
 20
444.9553687925072
 30
0.0
 11
14298.09186795748
 21
444.9553687925072
 31
0.0
  0
LINE
  5
F1FC
330
1F
100
AcDbEntity
  8
D-TTL-TXT
100
AcDbLine
 10
14283.08508748316
 20
442.4548347598077
 30
0.0
 11
14297.42521981468
 21
442.4548347598077
 31
0.0
  0
LINE
  5
F1FD
330
1F
100
AcDbEntity
  8
D-TTL-TXT
100
AcDbLine
 10
14283.64063256926
 20
439.9543007272925
 30
0.0
 11
14296.75854186953
 21
439.9543007272925
 31
0.0
  0
LINE
  5
F1FE
330
1F
100
AcDbEntity
  8
D-TTL-TXT
100
AcDbLine
 10
14305.42520614483
 20
472.4555211053666
 30
0.0
 11
14301.32449603229
 21
472.4555211053666
 31
0.0
  0
LINE
  5
F1FF
330
1F
100
AcDbEntity
  8
D-TTL-TXT
100
AcDbLine
 10
14300.65781808709
 20
469.9549870726671
 30
0.0
 11
14304.75855800196
 21
469.9549870726671
 31
0.0
  0
LINE
  5
F200
330
1F
100
AcDbEntity
  8
D-TTL-TXT
100
AcDbLine
 10
14299.99116994429
 20
467.454453040152
 30
0.0
 11
14304.09188005684
 21
467.454453040152
 31
0.0
  0
LINE
  5
F201
330
1F
100
AcDbEntity
  8
D-TTL-TXT
100
AcDbLine
 10
14299.32449199911
 20
464.9558263562696
 30
0.0
 11
14303.42523191404
 21
464.9558263562696
 31
0.0
  0
LINE
  5
F202
330
1F
100
AcDbEntity
  8
D-TTL-TXT
100
AcDbLine
 10
14298.65781405399
 20
462.4552923235751
 30
0.0
 11
14302.75855396886
 21
462.4552923235751
 31
0.0
  0
LINE
  5
F203
330
1F
100
AcDbEntity
  8
D-TTL-TXT
100
AcDbLine
 10
14297.99116591111
 20
459.9547582908756
 30
0.0
 11
14302.09187602374
 21
459.9547582908756
 31
0.0
  0
LINE
  5
F204
330
1F
100
AcDbEntity
  8
D-TTL-TXT
100
AcDbLine
 10
14316.26031717765
 20
472.4555211053666
 30
0.0
 11
14331.28685659154
 21
472.4555211053666
 31
0.0
  0
LINE
  5
F205
330
1F
100
AcDbEntity
  8
D-TTL-TXT
100
AcDbLine
 10
14319.17864996365
 20
468.0209355784609
 30
0.0
 11
14323.97488666913
 21
468.0209355784609
 31
0.0
  0
LINE
  5
F206
330
1F
100
AcDbEntity
  8
D-TTL-TXT
100
AcDbLine
 10
14315.59366903486
 20
469.9549870726671
 30
0.0
 11
14331.9535345367
 21
469.9549870726671
 31
0.0
  0
LINE
  5
F207
330
1F
100
AcDbEntity
  8
D-TTL-TXT
100
AcDbLine
 10
14314.92699108971
 20
467.454453040152
 30
0.0
 11
14319.02770120225
 21
467.454453040152
 31
0.0
  0
LINE
  5
F208
330
1F
100
AcDbEntity
  8
D-TTL-TXT
100
AcDbLine
 10
14314.26031314455
 20
464.9558263562696
 30
0.0
 11
14318.36105305946
 21
464.9558263562696
 31
0.0
  0
LINE
  5
F209
330
1F
100
AcDbEntity
  8
D-TTL-TXT
100
AcDbLine
 10
14313.59366500175
 20
462.4552923235751
 30
0.0
 11
14317.69437511434
 21
462.4552923235751
 31
0.0
  0
LINE
  5
F20A
330
1F
100
AcDbEntity
  8
D-TTL-TXT
100
AcDbLine
 10
14312.9269870566
 20
459.9547582908756
 30
0.0
 11
14317.02772697146
 21
459.9547582908756
 31
0.0
  0
LINE
  5
F20B
330
1F
100
AcDbEntity
  8
D-TTL-TXT
100
AcDbLine
 10
14324.12583543053
 20
467.454453040152
 30
0.0
 11
14332.62018267953
 21
467.454453040152
 31
0.0
  0
LINE
  5
F20C
330
1F
100
AcDbEntity
  8
D-TTL-TXT
100
AcDbLine
 10
14324.79251337569
 20
464.9558263562696
 30
0.0
 11
14333.28686062465
 21
464.9558263562696
 31
0.0
  0
LINE
  5
F20D
330
1F
100
AcDbEntity
  8
D-TTL-TXT
100
AcDbLine
 10
14325.45916151849
 20
462.4552923235751
 30
0.0
 11
14333.9535385698
 21
462.4552923235751
 31
0.0
  0
LINE
  5
F20E
330
1F
100
AcDbEntity
  8
D-TTL-TXT
100
AcDbLine
 10
14326.12583946367
 20
459.9547582908756
 30
0.0
 11
14334.62018671263
 21
459.9547582908756
 31
0.0
  0
LINE
  5
F20F
330
1F
100
AcDbEntity
  8
D-TTL-TXT
100
AcDbLine
 10
14297.89809325928
 20
581.5711206000899
 30
0.0
 11
14299.28109981818
 21
583.7321465796024
 31
0.0
  0
LINE
  5
F210
330
1F
100
AcDbEntity
  8
D-TTL-TXT
100
AcDbLine
 10
14299.28109981818
 20
583.7321465796024
 30
0.0
 11
14300.58840847894
 21
585.8702843755211
 31
0.0
  0
LINE
  5
F211
330
1F
100
AcDbEntity
  8
D-TTL-TXT
100
AcDbLine
 10
14300.58840847894
 20
585.8702843755211
 30
0.0
 11
14301.81846952087
 21
587.9817192909443
 31
0.0
  0
LINE
  5
F212
330
1F
100
AcDbEntity
  8
D-TTL-TXT
100
AcDbLine
 10
14301.81846952087
 20
587.9817192909443
 30
0.0
 11
14302.96973322322
 21
590.0626366286062
 31
0.0
  0
LINE
  5
F213
330
1F
100
AcDbEntity
  8
D-TTL-TXT
100
AcDbLine
 10
14302.96973322322
 20
590.0626366286062
 30
0.0
 11
14304.04088828375
 21
592.1111290396948
 31
0.0
  0
LINE
  5
F214
330
1F
100
AcDbEntity
  8
D-TTL-TXT
100
AcDbLine
 10
14304.04088828375
 20
592.1111290396948
 30
0.0
 11
14305.03050419106
 21
594.1252891757515
 31
0.0
  0
LINE
  5
F215
330
1F
100
AcDbEntity
  8
D-TTL-TXT
100
AcDbLine
 10
14305.03050419106
 20
594.1252891757515
 30
0.0
 11
14305.93747825922
 21
596.103209688333
 31
0.0
  0
LINE
  5
F216
330
1F
100
AcDbEntity
  8
D-TTL-TXT
100
AcDbLine
 10
14305.93747825922
 20
596.103209688333
 30
0.0
 11
14306.76067799996
 21
598.0410758798098
 31
0.0
  0
LINE
  5
F217
330
1F
100
AcDbEntity
  8
D-TTL-TXT
100
AcDbLine
 10
14306.76067799996
 20
598.0410758798098
 30
0.0
 11
14307.49906033208
 21
599.9369804019079
 31
0.0
  0
LINE
  5
F218
330
1F
100
AcDbEntity
  8
D-TTL-TXT
100
AcDbLine
 10
14307.49906033208
 20
599.9369804019079
 30
0.0
 11
14308.15179079047
 21
601.7890159058151
 31
0.0
  0
LINE
  5
F219
330
1F
100
AcDbEntity
  8
D-TTL-TXT
100
AcDbLine
 10
14308.15179079047
 20
601.7890159058151
 30
0.0
 11
14308.71800510787
 21
603.5952750430781
 31
0.0
  0
LINE
  5
F21A
330
1F
100
AcDbEntity
  8
D-TTL-TXT
100
AcDbLine
 10
14308.71800510787
 20
603.5952750430781
 30
0.0
 11
14309.19707743542
 21
605.3519431162567
 31
0.0
  0
LINE
  5
F21B
330
1F
100
AcDbEntity
  8
D-TTL-TXT
100
AcDbLine
 10
14309.19707743542
 20
605.3519431162567
 30
0.0
 11
14309.5884117268
 21
607.0571127768926
 31
0.0
  0
LINE
  5
F21C
330
1F
100
AcDbEntity
  8
D-TTL-TXT
100
AcDbLine
 10
14309.5884117268
 20
607.0571127768926
 30
0.0
 11
14309.89147154015
 21
608.7107840249857
 31
0.0
  0
LINE
  5
F21D
330
1F
100
AcDbEntity
  8
D-TTL-TXT
100
AcDbLine
 10
14309.89147154015
 20
608.7107840249857
 30
0.0
 11
14310.10595885219
 21
610.3091421632755
 31
0.0
  0
LINE
  5
F21E
330
1F
100
AcDbEntity
  8
D-TTL-TXT
100
AcDbLine
 10
14310.10595885219
 20
610.3091421632755
 30
0.0
 11
14310.23157563984
 21
611.8521871919413
 31
0.0
  0
LINE
  5
F21F
330
1F
100
AcDbEntity
  8
D-TTL-TXT
100
AcDbLine
 10
14310.23157563984
 20
611.8521871919413
 30
0.0
 11
14310.26817289137
 21
613.3341970647209
 31
0.0
  0
LINE
  5
F220
330
1F
100
AcDbEntity
  8
D-TTL-TXT
100
AcDbLine
 10
14310.26817289137
 20
613.3341970647209
 30
0.0
 11
14310.21569100212
 21
614.7570791306109
 31
0.0
  0
LINE
  5
F221
330
1F
100
AcDbEntity
  8
D-TTL-TXT
100
AcDbLine
 10
14310.21569100212
 20
614.7570791306109
 30
0.0
 11
14310.07424918149
 21
616.1170186921663
 31
0.0
  0
LINE
  5
F222
330
1F
100
AcDbEntity
  8
D-TTL-TXT
100
AcDbLine
 10
14310.07424918149
 20
616.1170186921663
 30
0.0
 11
14309.84396663873
 21
617.4140157495615
 31
0.0
  0
LINE
  5
F223
330
1F
100
AcDbEntity
  8
D-TTL-TXT
100
AcDbLine
 10
14309.84396663873
 20
617.4140157495615
 30
0.0
 11
14309.52517119932
 21
618.6442556053564
 31
0.0
  0
LINE
  5
F224
330
1F
100
AcDbEntity
  8
D-TTL-TXT
100
AcDbLine
 10
14309.52517119932
 20
618.6442556053564
 30
0.0
 11
14309.11819068889
 21
619.8077382597305
 31
0.0
  0
LINE
  5
F225
330
1F
100
AcDbEntity
  8
D-TTL-TXT
100
AcDbLine
 10
14309.11819068889
 20
619.8077382597305
 30
0.0
 11
14308.62356154914
 21
620.9044637126837
 31
0.0
  0
LINE
  5
F226
330
1F
100
AcDbEntity
  8
D-TTL-TXT
100
AcDbLine
 10
14308.62356154914
 20
620.9044637126837
 30
0.0
 11
14308.04185002428
 21
621.9306172669505
 31
0.0
  0
LINE
  5
F227
330
1F
100
AcDbEntity
  8
D-TTL-TXT
100
AcDbLine
 10
14308.04185002428
 20
621.9306172669505
 30
0.0
 11
14307.37383097465
 21
622.8842915737186
 31
0.0
  0
LINE
  5
F228
330
1F
100
AcDbEntity
  8
D-TTL-TXT
100
AcDbLine
 10
14307.37383097465
 20
622.8842915737186
 30
0.0
 11
14306.6202792606
 21
623.7673939817953
 31
0.0
  0
LINE
  5
F229
330
1F
100
AcDbEntity
  8
D-TTL-TXT
100
AcDbLine
 10
14306.6202792606
 20
623.7673939817953
 30
0.0
 11
14305.78205914949
 21
624.578017142737
 31
0.0
  0
LINE
  5
F22A
330
1F
100
AcDbEntity
  8
D-TTL-TXT
100
AcDbLine
 10
14305.78205914949
 20
624.578017142737
 30
0.0
 11
14304.86030312961
 21
625.3123463590939
 31
0.0
  0
LINE
  5
F22B
330
1F
100
AcDbEntity
  8
D-TTL-TXT
100
AcDbLine
 10
14304.86030312961
 20
625.3123463590939
 30
0.0
 11
14303.85605428215
 21
625.9741963279521
 31
0.0
  0
LINE
  5
F22C
330
1F
100
AcDbEntity
  8
D-TTL-TXT
100
AcDbLine
 10
14303.85605428215
 20
625.9741963279521
 30
0.0
 11
14302.7705643047
 21
626.5578450037719
 31
0.0
  0
LINE
  5
F22D
330
1F
100
AcDbEntity
  8
D-TTL-TXT
100
AcDbLine
 10
14302.7705643047
 20
626.5578450037719
 30
0.0
 11
14301.60514449937
 21
627.0671070836397
 31
0.0
  0
LINE
  5
F22E
330
1F
100
AcDbEntity
  8
D-TTL-TXT
100
AcDbLine
 10
14301.60514449937
 20
627.0671070836397
 30
0.0
 11
14300.36122537764
 21
627.4962605218363
 31
0.0
  0
LINE
  5
F22F
330
1F
100
AcDbEntity
  8
D-TTL-TXT
100
AcDbLine
 10
14300.36122537764
 20
627.4962605218363
 30
0.0
 11
14299.04029705569
 21
627.8491200152687
 31
0.0
  0
LINE
  5
F230
330
1F
100
AcDbEntity
  8
D-TTL-TXT
100
AcDbLine
 10
14299.04029705569
 20
627.8491200152687
 30
0.0
 11
14297.64402846347
 21
628.1256855643005
 31
0.0
  0
LINE
  5
F231
330
1F
100
AcDbEntity
  8
D-TTL-TXT
100
AcDbLine
 10
14276.09861852266
 20
554.6984859812412
 30
0.0
 11
14278.23416351664
 21
556.9415279508732
 31
0.0
  0
LINE
  5
F232
330
1F
100
AcDbEntity
  8
D-TTL-TXT
100
AcDbLine
 10
14242.49539768065
 20
525.6304931078532
 30
0.0
 11
14245.03649267361
 21
527.4844359603933
 31
0.0
  0
LINE
  5
F233
330
1F
100
AcDbEntity
  8
D-TTL-TXT
100
AcDbLine
 10
14241.27955234635
 20
459.5160681096943
 30
0.0
 11
14241.11778534204
 21
460.134049060541
 31
0.0
  0
LINE
  5
F234
330
1F
100
AcDbEntity
  8
D-TTL-TXT
100
AcDbLine
 10
14241.11778534204
 20
460.134049060541
 30
0.0
 11
14240.94189203708
 21
460.7444006170408
 31
0.0
  0
LINE
  5
F235
330
1F
100
AcDbEntity
  8
D-TTL-TXT
100
AcDbLine
 10
14240.94189203708
 20
460.7444006170408
 30
0.0
 11
14240.7517830245
 21
461.3452154303716
 31
0.0
  0
LINE
  5
F236
330
1F
100
AcDbEntity
  8
D-TTL-TXT
100
AcDbLine
 10
14240.7517830245
 20
461.3452154303716
 30
0.0
 11
14240.54719008328
 21
461.9384008491761
 31
0.0
  0
LINE
  5
F237
330
1F
100
AcDbEntity
  8
D-TTL-TXT
100
AcDbLine
 10
14240.54719008328
 20
461.9384008491761
 30
0.0
 11
14240.32766617882
 21
462.5201421763631
 31
0.0
  0
LINE
  5
F238
330
1F
100
AcDbEntity
  8
D-TTL-TXT
100
AcDbLine
 10
14240.32766617882
 20
462.5201421763631
 30
0.0
 11
14240.09252585751
 21
463.0923467605655
 31
0.0
  0
LINE
  5
F239
330
1F
100
AcDbEntity
  8
D-TTL-TXT
100
AcDbLine
 10
14240.09252585751
 20
463.0923467605655
 30
0.0
 11
14239.84102406143
 21
463.653107252976
 31
0.0
  0
LINE
  5
F23A
330
1F
100
AcDbEntity
  8
D-TTL-TXT
100
AcDbLine
 10
14239.84102406143
 20
463.653107252976
 30
0.0
 11
14239.57229652311
 21
464.2005163051362
 31
0.0
  0
LINE
  5
F23B
330
1F
100
AcDbEntity
  8
D-TTL-TXT
100
AcDbLine
 10
14239.57229652311
 20
464.2005163051362
 30
0.0
 11
14239.2853001614
 21
464.736481265679
 31
0.0
  0
LINE
  5
F23C
330
1F
100
AcDbEntity
  8
D-TTL-TXT
100
AcDbLine
 10
14239.2853001614
 20
464.736481265679
 30
0.0
 11
14238.97908130192
 21
465.259094785797
 31
0.0
  0
LINE
  5
F23D
330
1F
100
AcDbEntity
  8
D-TTL-TXT
100
AcDbLine
 10
14238.97908130192
 20
465.259094785797
 30
0.0
 11
14238.65250745646
 21
465.766449517032
 31
0.0
  0
LINE
  5
F23E
330
1F
100
AcDbEntity
  8
D-TTL-TXT
100
AcDbLine
 10
14238.65250745646
 20
465.766449517032
 30
0.0
 11
14238.30456534608
 21
466.2604528080167
 31
0.0
  0
LINE
  5
F23F
330
1F
100
AcDbEntity
  8
D-TTL-TXT
100
AcDbLine
 10
14238.30456534608
 20
466.2604528080167
 30
0.0
 11
14237.93430129641
 21
466.7372899614904
 31
0.0
  0
LINE
  5
F240
330
1F
100
AcDbEntity
  8
D-TTL-TXT
100
AcDbLine
 10
14239.94783558377
 20
523.8242339705903
 30
0.0
 11
14242.49539768065
 21
525.6304931078532
 31
0.0
  0
LINE
  5
F241
330
1F
100
AcDbEntity
  8
D-TTL-TXT
100
AcDbLine
 10
14274.14850357676
 20
459.5313268987568
 30
0.0
 11
14279.29053662546
 21
459.5313268987568
 31
0.0
  0
LINE
  5
F242
330
1F
100
AcDbEntity
  8
D-TTL-TXT
100
AcDbLine
 10
14256.99598571424
 20
472.4555211053666
 30
0.0
 11
14248.58824401326
 21
472.4555211053666
 31
0.0
  0
LINE
  5
F243
330
1F
100
AcDbEntity
  8
D-TTL-TXT
100
AcDbLine
 10
14249.14378909936
 20
469.9549870726671
 30
0.0
 11
14257.55156060266
 21
469.9549870726671
 31
0.0
  0
LINE
  5
F244
330
1F
100
AcDbEntity
  8
D-TTL-TXT
100
AcDbLine
 10
14249.69933418546
 20
467.454453040152
 30
0.0
 11
14258.10710568872
 21
467.454453040152
 31
0.0
  0
LINE
  5
F245
330
1F
100
AcDbEntity
  8
D-TTL-TXT
100
AcDbLine
 10
14250.25490907384
 20
464.9558263562696
 30
0.0
 11
14258.66265077482
 21
464.9558263562696
 31
0.0
  0
LINE
  5
F246
330
1F
100
AcDbEntity
  8
D-TTL-TXT
100
AcDbLine
 10
14250.81045415991
 20
462.4552923235751
 30
0.0
 11
14259.21822566321
 21
462.4552923235751
 31
0.0
  0
LINE
  5
F247
330
1F
100
AcDbEntity
  8
D-TTL-TXT
100
AcDbLine
 10
14251.36599924601
 20
459.9547582908756
 30
0.0
 11
14259.77377074928
 21
459.9547582908756
 31
0.0
  0
LINE
  5
F248
330
1F
100
AcDbEntity
  8
D-TTL-TXT
100
AcDbLine
 10
14284.82616894198
 20
472.4555211053666
 30
0.0
 11
14273.49431280451
 21
472.4555211053666
 31
0.0
  0
LINE
  5
F249
330
1F
100
AcDbEntity
  8
D-TTL-TXT
100
AcDbLine
 10
14272.82763485939
 20
469.9549870726671
 30
0.0
 11
14285.38174383036
 21
469.9549870726671
 31
0.0
  0
LINE
  5
F24A
330
1F
100
AcDbEntity
  8
D-TTL-TXT
100
AcDbLine
 10
14272.16098671651
 20
467.454453040152
 30
0.0
 11
14285.93728891643
 21
467.454453040152
 31
0.0
  0
LINE
  5
F24B
330
1F
100
AcDbEntity
  8
D-TTL-TXT
100
AcDbLine
 10
14271.4943087714
 20
464.9558263562696
 30
0.0
 11
14286.49283400253
 21
464.9558263562696
 31
0.0
  0
LINE
  5
F24C
330
1F
100
AcDbEntity
  8
D-TTL-TXT
100
AcDbLine
 10
14270.82763082628
 20
462.4552923235751
 30
0.0
 11
14287.04840889091
 21
462.4552923235751
 31
0.0
  0
LINE
  5
F24D
330
1F
100
AcDbEntity
  8
D-TTL-TXT
100
AcDbLine
 10
14270.16098268341
 20
459.9547582908756
 30
0.0
 11
14287.60395397701
 21
459.9547582908756
 31
0.0
  0
LINE
  5
F24E
330
1F
100
AcDbEntity
  8
D-TTL-TXT
100
AcDbLine
 10
14245.03649267361
 20
527.4844359603933
 30
0.0
 11
14247.56799131891
 21
529.3803404824914
 31
0.0
  0
LINE
  5
F24F
330
1F
100
AcDbEntity
  8
D-TTL-TXT
100
AcDbLine
 10
14247.56799131891
 20
529.3803404824914
 30
0.0
 11
14250.08682397725
 21
531.320114022601
 31
0.0
  0
LINE
  5
F250
330
1F
100
AcDbEntity
  8
D-TTL-TXT
100
AcDbLine
 10
14250.08682397725
 20
531.320114022601
 30
0.0
 11
14252.58992100953
 21
533.2980345349981
 31
0.0
  0
LINE
  5
F251
330
1F
100
AcDbEntity
  8
D-TTL-TXT
100
AcDbLine
 10
14252.58992100953
 20
533.2980345349981
 30
0.0
 11
14255.07424257896
 21
535.3121946712392
 31
0.0
  0
LINE
  5
F252
330
1F
100
AcDbEntity
  8
D-TTL-TXT
100
AcDbLine
 10
14255.07424257896
 20
535.3121946712392
 30
0.0
 11
14257.53671904622
 21
537.3625944309606
 31
0.0
  0
LINE
  5
F253
330
1F
100
AcDbEntity
  8
D-TTL-TXT
100
AcDbLine
 10
14257.53671904622
 20
537.3625944309606
 30
0.0
 11
14259.97439998155
 21
539.4435117684381
 31
0.0
  0
LINE
  5
F254
330
1F
100
AcDbEntity
  8
D-TTL-TXT
100
AcDbLine
 10
14259.97439998155
 20
539.4435117684381
 30
0.0
 11
14262.3843051527
 21
541.5549466838613
 31
0.0
  0
LINE
  5
F255
330
1F
100
AcDbEntity
  8
D-TTL-TXT
100
AcDbLine
 10
14262.3843051527
 20
541.5549466838613
 30
0.0
 11
14264.76348412977
 21
543.6930844799644
 31
0.0
  0
LINE
  5
F256
330
1F
100
AcDbEntity
  8
D-TTL-TXT
100
AcDbLine
 10
14264.76348412977
 20
543.6930844799644
 30
0.0
 11
14267.10904608754
 21
545.8560178079253
 31
0.0
  0
LINE
  5
F257
330
1F
100
AcDbEntity
  8
D-TTL-TXT
100
AcDbLine
 10
14267.10904608754
 20
545.8560178079253
 30
0.0
 11
14269.41813000307
 21
548.0418393193006
 31
0.0
  0
LINE
  5
F258
330
1F
100
AcDbEntity
  8
D-TTL-TXT
100
AcDbLine
 10
14269.41813000307
 20
548.0418393193006
 30
0.0
 11
14271.68790465573
 21
550.2448269680074
 31
0.0
  0
LINE
  5
F259
330
1F
100
AcDbEntity
  8
D-TTL-TXT
100
AcDbLine
 10
14271.68790465567
 20
550.2448269680074
 30
0.0
 11
14273.91565803421
 21
552.4649807544094
 31
0.0
  0
LINE
  5
F25A
330
1F
100
AcDbEntity
  8
D-TTL-TXT
100
AcDbLine
 10
14273.91565803424
 20
552.4649807544094
 30
0.0
 11
14276.09861852266
 21
554.6984859812412
 31
0.0
  0
LINE
  5
F25B
330
1F
100
AcDbEntity
  8
D-TTL-TXT
100
AcDbLine
 10
14244.58474907541
 20
610.2805319341471
 30
0.0
 11
14242.0423129779
 21
608.6821737958573
 31
0.0
  0
LINE
  5
F25C
330
1F
100
AcDbEntity
  8
D-TTL-TXT
100
AcDbLine
 10
14242.0423129779
 20
608.6821737958573
 30
0.0
 11
14239.49391641599
 21
607.0265951991314
 31
0.0
  0
LINE
  5
F25D
330
1F
100
AcDbEntity
  8
D-TTL-TXT
100
AcDbLine
 10
14280.31967041181
 20
559.1960140123021
 30
0.0
 11
14282.35260601086
 21
561.4524074223639
 31
0.0
  0
LINE
  5
F25E
330
1F
100
AcDbEntity
  8
D-TTL-TXT
100
AcDbLine
 10
14281.99456091327
 20
627.057570340655
 30
0.0
 11
14279.95208857115
 21
626.5483082607873
 31
0.0
  0
LINE
  5
F25F
330
1F
100
AcDbEntity
  8
D-TTL-TXT
100
AcDbLine
 10
14282.35260601086
 20
561.4524074223639
 30
0.0
 11
14284.33049672098
 21
563.714522878324
 31
0.0
  0
LINE
  5
F260
330
1F
100
AcDbEntity
  8
D-TTL-TXT
100
AcDbLine
 10
14284.33049672098
 20
563.714522878324
 30
0.0
 11
14286.25092855411
 21
565.9747309856514
 31
0.0
  0
LINE
  5
F261
330
1F
100
AcDbEntity
  8
D-TTL-TXT
100
AcDbLine
 10
14286.25092855411
 20
565.9747309856514
 30
0.0
 11
14288.11157692915
 21
568.2330317443459
 31
0.0
  0
LINE
  5
F262
330
1F
100
AcDbEntity
  8
D-TTL-TXT
100
AcDbLine
 10
14288.11157692915
 20
568.2330317443459
 30
0.0
 11
14289.91014706728
 21
570.485610457142
 31
0.0
  0
LINE
  5
F263
330
1F
100
AcDbEntity
  8
D-TTL-TXT
100
AcDbLine
 10
14289.91014706728
 20
570.485610457142
 30
0.0
 11
14291.64443359663
 21
572.7305597754068
 31
0.0
  0
LINE
  5
F264
330
1F
100
AcDbEntity
  8
D-TTL-TXT
100
AcDbLine
 10
14291.64443359663
 20
572.7305597754068
 30
0.0
 11
14293.31240995932
 21
574.9640650022386
 31
0.0
  0
LINE
  5
F265
330
1F
100
AcDbEntity
  8
D-TTL-TXT
100
AcDbLine
 10
14293.31240995932
 20
574.9640650022386
 30
0.0
 11
14294.91193038822
 21
577.1823114400079
 31
0.0
  0
LINE
  5
F266
330
1F
100
AcDbEntity
  8
D-TTL-TXT
100
AcDbLine
 10
14294.91193038822
 20
577.1823114400079
 30
0.0
 11
14296.44111733694
 21
579.3872064373474
 31
0.0
  0
LINE
  5
F267
330
1F
100
AcDbEntity
  8
D-TTL-TXT
100
AcDbLine
 10
14296.17405872868
 20
628.3221424714768
 30
0.0
 11
14294.63220579306
 21
628.438490736987
 31
0.0
  0
LINE
  5
F268
330
1F
100
AcDbEntity
  8
D-TTL-TXT
100
AcDbLine
 10
14294.63220579306
 20
628.438490736987
 30
0.0
 11
14293.02031740055
 21
628.4766377092794
 31
0.0
  0
LINE
  5
F269
330
1F
100
AcDbEntity
  8
D-TTL-TXT
100
AcDbLine
 10
14293.02031740055
 20
628.4766377092794
 30
0.0
 11
14291.34042010897
 21
628.4365833883541
 31
0.0
  0
LINE
  5
F26A
330
1F
100
AcDbEntity
  8
D-TTL-TXT
100
AcDbLine
 10
14291.34042010897
 20
628.4365833883541
 30
0.0
 11
14289.594510674
 21
628.3183277742112
 31
0.0
  0
LINE
  5
F26B
330
1F
100
AcDbEntity
  8
D-TTL-TXT
100
AcDbLine
 10
14289.594510674
 20
628.3183277742112
 30
0.0
 11
14287.7847348628
 21
628.119963518402
 31
0.0
  0
LINE
  5
F26C
330
1F
100
AcDbEntity
  8
D-TTL-TXT
100
AcDbLine
 10
14287.7847348628
 20
628.119963518402
 30
0.0
 11
14285.9132682448
 21
627.8433979693702
 31
0.0
  0
LINE
  5
F26D
330
1F
100
AcDbEntity
  8
D-TTL-TXT
100
AcDbLine
 10
14285.9132682448
 20
627.8433979693702
 30
0.0
 11
14283.9824354013
 21
627.4905384759379
 31
0.0
  0
LINE
  5
F26E
330
1F
100
AcDbEntity
  8
D-TTL-TXT
100
AcDbLine
 10
14283.9824354013
 20
627.4905384759379
 30
0.0
 11
14281.99456091327
 21
627.057570340655
 31
0.0
  0
LINE
  5
F26F
330
1F
100
AcDbEntity
  8
D-TTL-TXT
100
AcDbLine
 10
14278.23416351664
 20
556.9415279508732
 30
0.0
 11
14280.31967041181
 21
559.1960140123021
 31
0.0
  0
LINE
  5
F270
330
1F
100
AcDbEntity
  8
D-TTL-TXT
100
AcDbLine
 10
14279.95208857115
 20
626.5483082607873
 30
0.0
 11
14277.85746216545
 21
625.9627522363346
 31
0.0
  0
LINE
  5
F271
330
1F
100
AcDbEntity
  8
D-TTL-TXT
100
AcDbLine
 10
14277.85746216545
 20
625.9627522363346
 30
0.0
 11
14275.71330430041
 21
625.300902267297
 31
0.0
  0
LINE
  5
F272
330
1F
100
AcDbEntity
  8
D-TTL-TXT
100
AcDbLine
 10
14275.71330430041
 20
625.300902267297
 30
0.0
 11
14273.52214817336
 21
624.5627583538589
 31
0.0
  0
LINE
  5
F273
330
1F
100
AcDbEntity
  8
D-TTL-TXT
100
AcDbLine
 10
14273.52214817336
 20
624.5627583538589
 30
0.0
 11
14271.28673559808
 21
623.7521351930966
 31
0.0
  0
LINE
  5
F274
330
1F
100
AcDbEntity
  8
D-TTL-TXT
100
AcDbLine
 10
14271.28673559808
 20
623.7521351930966
 30
0.0
 11
14269.00974878346
 21
622.8690327848355
 31
0.0
  0
LINE
  5
F275
330
1F
100
AcDbEntity
  8
D-TTL-TXT
100
AcDbLine
 10
14269.00974878346
 20
622.8690327848355
 30
0.0
 11
14266.69395934546
 21
621.9115437808068
 31
0.0
  0
LINE
  5
F276
330
1F
100
AcDbEntity
  8
D-TTL-TXT
100
AcDbLine
 10
14266.69395934546
 20
621.9115437808068
 30
0.0
 11
14264.34222830704
 21
620.88539022654
 31
0.0
  0
LINE
  5
F277
330
1F
100
AcDbEntity
  8
D-TTL-TXT
100
AcDbLine
 10
14264.34222830704
 20
620.88539022654
 30
0.0
 11
14261.95735708647
 21
619.7886647735868
 31
0.0
  0
LINE
  5
F278
330
1F
100
AcDbEntity
  8
D-TTL-TXT
100
AcDbLine
 10
14261.95735708647
 20
619.7886647735868
 30
0.0
 11
14259.54232591594
 21
618.6232747707593
 31
0.0
  0
LINE
  5
F279
330
1F
100
AcDbEntity
  8
D-TTL-TXT
100
AcDbLine
 10
14259.54232591594
 20
618.6232747707593
 30
0.0
 11
14257.10002562064
 21
617.3911275661521
 31
0.0
  0
LINE
  5
F27A
330
1F
100
AcDbEntity
  8
D-TTL-TXT
100
AcDbLine
 10
14257.10002562064
 20
617.3911275661521
 30
0.0
 11
14254.63343643292
 21
616.0922231601191
 31
0.0
  0
LINE
  5
F27B
330
1F
100
AcDbEntity
  8
D-TTL-TXT
100
AcDbLine
 10
14254.63343643292
 20
616.0922231601191
 30
0.0
 11
14252.1455683872
 21
614.7303762501153
 31
0.0
  0
LINE
  5
F27C
330
1F
100
AcDbEntity
  8
D-TTL-TXT
100
AcDbLine
 10
14252.1455683872
 20
614.7303762501153
 30
0.0
 11
14249.63946132036
 21
613.3074941842253
 31
0.0
  0
LINE
  5
F27D
330
1F
100
AcDbEntity
  8
D-TTL-TXT
100
AcDbLine
 10
14249.63946132036
 20
613.3074941842253
 30
0.0
 11
14247.11818487162
 21
611.8235769626335
 31
0.0
  0
LINE
  5
F27E
330
1F
100
AcDbEntity
  8
D-TTL-TXT
100
AcDbLine
 10
14247.11818487162
 20
611.8235769626335
 30
0.0
 11
14244.58474907541
 21
610.2805319341471
 31
0.0
  0
LINE
  5
F27F
330
1F
100
AcDbEntity
  8
D-TTL-TXT
100
AcDbLine
 10
14296.44111733694
 20
579.3872064373474
 30
0.0
 11
14297.89809325928
 21
581.5711206000899
 31
0.0
  0
LINE
  5
F280
330
1F
100
AcDbEntity
  8
D-TTL-TXT
100
AcDbLine
 10
14297.64402846347
 20
628.1256855643005
 30
0.0
 11
14296.17405872868
 21
628.3221424714768
 31
0.0
  0
LINE
  5
F281
330
1F
100
AcDbEntity
  8
D-TTL-TXT
100
AcDbLine
 10
14297.324487966
 20
457.4542242583604
 30
0.0
 11
14301.4252278809
 21
457.4542242583604
 31
0.0
  0
LINE
  5
F282
330
1F
100
AcDbEntity
  8
D-TTL-TXT
100
AcDbLine
 10
14296.6578398232
 20
454.9555975742987
 30
0.0
 11
14300.75854993574
 21
454.9555975742987
 31
0.0
  0
LINE
  5
F283
330
1F
100
AcDbEntity
  8
D-TTL-TXT
100
AcDbLine
 10
14329.63527150598
 20
446.7940528561642
 30
0.0
 11
14313.51829492916
 21
446.7940528561642
 31
0.0
  0
LINE
  5
F284
330
1F
100
AcDbEntity
  8
D-TTL-TXT
100
AcDbLine
 10
14328.57865997859
 20
450.7575232754946
 30
0.0
 11
14314.57487665422
 21
450.7575232754946
 31
0.0
  0
LINE
  5
F285
330
1F
100
AcDbEntity
  8
D-TTL-TXT
100
AcDbLine
 10
14312.26033891376
 20
457.4542242583604
 30
0.0
 11
14316.36104902634
 21
457.4542242583604
 31
0.0
  0
LINE
  5
F286
330
1F
100
AcDbEntity
  8
D-TTL-TXT
100
AcDbLine
 10
14311.59366096862
 20
454.9555975742987
 30
0.0
 11
14315.69437108122
 21
454.9555975742987
 31
0.0
  0
LINE
  5
F287
330
1F
100
AcDbEntity
  8
D-TTL-TXT
100
AcDbLine
 10
14310.9269830235
 20
452.4550635415992
 30
0.0
 11
14315.02772293836
 21
452.4550635415992
 31
0.0
  0
LINE
  5
F288
330
1F
100
AcDbEntity
  8
D-TTL-TXT
100
AcDbLine
 10
14310.26033488062
 20
449.9545295090841
 30
0.0
 11
14337.28686869086
 21
449.9545295090841
 31
0.0
  0
LINE
  5
F289
330
1F
100
AcDbEntity
  8
D-TTL-TXT
100
AcDbLine
 10
14309.5936569355
 20
447.4559028252017
 30
0.0
 11
14337.95354663605
 21
447.4559028252017
 31
0.0
  0
LINE
  5
F28A
330
1F
100
AcDbEntity
  8
D-TTL-TXT
100
AcDbLine
 10
14326.79248760647
 20
457.4542242583604
 30
0.0
 11
14335.28686465775
 21
457.4542242583604
 31
0.0
  0
LINE
  5
F28B
330
1F
100
AcDbEntity
  8
D-TTL-TXT
100
AcDbLine
 10
14327.45916555159
 20
454.9555975742987
 30
0.0
 11
14335.95351280059
 21
454.9555975742987
 31
0.0
  0
LINE
  5
F28C
330
1F
100
AcDbEntity
  8
D-TTL-TXT
100
AcDbLine
 10
14328.12584349679
 20
452.4550635415992
 30
0.0
 11
14336.62019074574
 21
452.4550635415992
 31
0.0
  0
LINE
  5
F28D
330
1F
100
AcDbEntity
  8
D-TTL-TXT
100
AcDbLine
 10
14242.0282760842
 20
453.729172415585
 30
0.0
 11
14242.01763665522
 21
454.3833929900913
 31
0.0
  0
LINE
  5
F28E
330
1F
100
AcDbEntity
  8
D-TTL-TXT
100
AcDbLine
 10
14242.01763665522
 20
454.3833929900913
 30
0.0
 11
14241.98646342633
 21
455.0357062161492
 31
0.0
  0
LINE
  5
F28F
330
1F
100
AcDbEntity
  8
D-TTL-TXT
100
AcDbLine
 10
14241.98646342633
 20
455.0357062161492
 30
0.0
 11
14241.93588888571
 21
455.6861120933899
 31
0.0
  0
LINE
  5
F290
330
1F
100
AcDbEntity
  8
D-TTL-TXT
100
AcDbLine
 10
14241.93588888571
 20
455.6861120933899
 30
0.0
 11
14241.86701571936
 21
456.3346106219978
 31
0.0
  0
LINE
  5
F291
330
1F
100
AcDbEntity
  8
D-TTL-TXT
100
AcDbLine
 10
14241.86701571936
 20
456.3346106219978
 30
0.0
 11
14241.78085720621
 21
456.9812018021523
 31
0.0
  0
LINE
  5
F292
330
1F
100
AcDbEntity
  8
D-TTL-TXT
100
AcDbLine
 10
14241.78085720621
 20
456.9812018021523
 30
0.0
 11
14241.67833721822
 21
457.6220709362289
 31
0.0
  0
LINE
  5
F293
330
1F
100
AcDbEntity
  8
D-TTL-TXT
100
AcDbLine
 10
14241.67833721822
 20
457.6220709362289
 30
0.0
 11
14241.56020081347
 21
458.2591253734038
 31
0.0
  0
LINE
  5
F294
330
1F
100
AcDbEntity
  8
D-TTL-TXT
100
AcDbLine
 10
14241.56020081347
 20
458.2591253734038
 30
0.0
 11
14241.42713344532
 21
458.8904577645007
 31
0.0
  0
LINE
  5
F295
330
1F
100
AcDbEntity
  8
D-TTL-TXT
100
AcDbLine
 10
14240.54716028095
 20
445.5199439821783
 30
0.0
 11
14240.75175322217
 21
446.1131294009828
 31
0.0
  0
LINE
  5
F296
330
1F
100
AcDbEntity
  8
D-TTL-TXT
100
AcDbLine
 10
14240.75175322217
 20
446.1131294009828
 30
0.0
 11
14240.94186223476
 21
446.7139442143136
 31
0.0
  0
LINE
  5
F297
330
1F
100
AcDbEntity
  8
D-TTL-TXT
100
AcDbLine
 10
14240.94186223476
 20
446.7139442143136
 30
0.0
 11
14241.11775553971
 21
447.3242957708134
 31
0.0
  0
LINE
  5
F298
330
1F
100
AcDbEntity
  8
D-TTL-TXT
100
AcDbLine
 10
14241.11775553971
 20
447.3242957708134
 30
0.0
 11
14241.27952254403
 21
447.9422767216601
 31
0.0
  0
LINE
  5
F299
330
1F
100
AcDbEntity
  8
D-TTL-TXT
100
AcDbLine
 10
14241.27952254403
 20
447.9422767216601
 30
0.0
 11
14241.427103643
 21
448.5678870668537
 31
0.0
  0
LINE
  5
F29A
330
1F
100
AcDbEntity
  8
D-TTL-TXT
100
AcDbLine
 10
14241.427103643
 20
448.5678870668537
 30
0.0
 11
14241.56017101115
 21
449.1992194581301
 31
0.0
  0
LINE
  5
F29B
330
1F
100
AcDbEntity
  8
D-TTL-TXT
100
AcDbLine
 10
14241.56017101115
 20
449.1992194581301
 30
0.0
 11
14241.67830741589
 21
449.8362738949411
 31
0.0
  0
LINE
  5
F29C
330
1F
100
AcDbEntity
  8
D-TTL-TXT
100
AcDbLine
 10
14241.67830741589
 20
449.8362738949411
 30
0.0
 11
14241.78085720621
 21
450.4771430292021
 31
0.0
  0
LINE
  5
F29D
330
1F
100
AcDbEntity
  8
D-TTL-TXT
100
AcDbLine
 10
14241.78085720621
 20
450.4771430292021
 30
0.0
 11
14241.86701571936
 21
451.1237342093566
 31
0.0
  0
LINE
  5
F29E
330
1F
100
AcDbEntity
  8
D-TTL-TXT
100
AcDbLine
 10
14241.86701571936
 20
451.1237342093566
 30
0.0
 11
14241.93588888571
 21
451.7722327379645
 31
0.0
  0
LINE
  5
F29F
330
1F
100
AcDbEntity
  8
D-TTL-TXT
100
AcDbLine
 10
14241.93588888571
 20
451.7722327379645
 30
0.0
 11
14241.98646342633
 21
452.4226386152052
 31
0.0
  0
LINE
  5
F2A0
330
1F
100
AcDbEntity
  8
D-TTL-TXT
100
AcDbLine
 10
14241.98646342633
 20
452.4226386152052
 30
0.0
 11
14242.01763665522
 21
453.0749518410787
 31
0.0
  0
LINE
  5
F2A1
330
1F
100
AcDbEntity
  8
D-TTL-TXT
100
AcDbLine
 10
14242.01763665522
 20
453.0749518410787
 30
0.0
 11
14242.0282760842
 21
453.729172415585
 31
0.0
  0
LINE
  5
F2A2
330
1F
100
AcDbEntity
  8
D-TTL-TXT
100
AcDbLine
 10
14266.95341836159
 20
447.927017932777
 30
0.0
 11
14262.44674101752
 21
447.927017932777
 31
0.0
  0
LINE
  5
F2A3
330
1F
100
AcDbEntity
  8
D-TTL-TXT
100
AcDbLine
 10
14251.92157413436
 20
457.4542242583604
 30
0.0
 11
14260.32931583533
 21
457.4542242583604
 31
0.0
  0
LINE
  5
F2A4
330
1F
100
AcDbEntity
  8
D-TTL-TXT
100
AcDbLine
 10
14252.47711922045
 20
454.9555975742987
 30
0.0
 11
14260.88489072372
 21
454.9555975742987
 31
0.0
  0
LINE
  5
F2A5
330
1F
100
AcDbEntity
  8
D-TTL-TXT
100
AcDbLine
 10
14253.03269410884
 20
452.4550635415992
 30
0.0
 11
14261.44043580982
 21
452.4550635415992
 31
0.0
  0
LINE
  5
F2A6
330
1F
100
AcDbEntity
  8
D-TTL-TXT
100
AcDbLine
 10
14253.58823919494
 20
449.9545295090841
 30
0.0
 11
14261.99601069824
 21
449.9545295090841
 31
0.0
  0
LINE
  5
F2A7
330
1F
100
AcDbEntity
  8
D-TTL-TXT
100
AcDbLine
 10
14254.14378428096
 20
447.4559028252017
 30
0.0
 11
14270.92836267493
 21
447.4559028252017
 31
0.0
  0
LINE
  5
F2A8
330
1F
100
AcDbEntity
  8
D-TTL-TXT
100
AcDbLine
 10
14269.4943047383
 20
457.4542242583604
 30
0.0
 11
14273.59504465319
 21
457.4542242583604
 31
0.0
  0
LINE
  5
F2A9
330
1F
100
AcDbEntity
  8
D-TTL-TXT
100
AcDbLine
 10
14268.82762679318
 20
454.9555975742987
 30
0.0
 11
14272.92836670804
 21
454.9555975742987
 31
0.0
  0
LINE
  5
F2AA
330
1F
100
AcDbEntity
  8
D-TTL-TXT
100
AcDbLine
 10
14268.1609786503
 20
452.4550635415992
 30
0.0
 11
14272.26168876288
 21
452.4550635415992
 31
0.0
  0
LINE
  5
F2AB
330
1F
100
AcDbEntity
  8
D-TTL-TXT
100
AcDbLine
 10
14267.49430070518
 20
449.9545295090841
 30
0.0
 11
14271.59504062008
 21
449.9545295090841
 31
0.0
  0
LINE
  5
F2AC
330
1F
100
AcDbEntity
  8
D-TTL-TXT
100
AcDbLine
 10
14279.75175736207
 20
457.4542242583604
 30
0.0
 11
14288.15949906304
 21
457.4542242583604
 31
0.0
  0
LINE
  5
F2AD
330
1F
100
AcDbEntity
  8
D-TTL-TXT
100
AcDbLine
 10
14280.30730244817
 20
454.9555975742987
 30
0.0
 11
14288.71507395143
 21
454.9555975742987
 31
0.0
  0
LINE
  5
F2AE
330
1F
100
AcDbEntity
  8
D-TTL-TXT
100
AcDbLine
 10
14294.78363139162
 20
447.927017932777
 30
0.0
 11
14290.27692424523
 21
447.927017932777
 31
0.0
  0
LINE
  5
F2AF
330
1F
100
AcDbEntity
  8
D-TTL-TXT
100
AcDbLine
 10
14280.86284753423
 20
452.4550635415992
 30
0.0
 11
14289.27061903753
 21
452.4550635415992
 31
0.0
  0
LINE
  5
F2B0
330
1F
100
AcDbEntity
  8
D-TTL-TXT
100
AcDbLine
 10
14281.41842242265
 20
449.9545295090841
 30
0.0
 11
14289.82619392595
 21
449.9545295090841
 31
0.0
  0
LINE
  5
F2B1
330
1F
100
AcDbEntity
  8
D-TTL-TXT
100
AcDbLine
 10
14281.97396750871
 20
447.4559028252017
 30
0.0
 11
14298.75854590264
 21
447.4559028252017
 31
0.0
  0
LINE
  5
F2B2
330
1F
100
AcDbEntity
  8
D-TTL-TXT
100
AcDbLine
 10
14295.99116187801
 20
452.4550635415992
 30
0.0
 11
14300.09190179291
 21
452.4550635415992
 31
0.0
  0
LINE
  5
F2B3
330
1F
100
AcDbEntity
  8
D-TTL-TXT
100
AcDbLine
 10
14295.3244839329
 20
449.9545295090841
 30
0.0
 11
14299.42522384779
 21
449.9545295090841
 31
0.0
  0
LINE
  5
F2B4
330
1F
100
AcDbEntity
  8
D-TTL-TXT
100
AcDbLine
 10
14241.42713344532
 20
458.8904577645007
 30
0.0
 11
14241.27955234635
 21
459.5160681096943
 31
0.0
  0
LINE
  5
F2B5
330
1F
100
AcDbEntity
  8
D-TTL-TXT
100
AcDbLine
 10
14273.49431280451
 20
472.4555211053666
 30
0.0
 11
14266.95341836159
 21
447.927017932777
 31
0.0
  0
LINE
  5
F2B6
330
1F
100
AcDbEntity
  8
D-TTL-TXT
100
AcDbLine
 10
14262.44674101752
 20
447.927017932777
 30
0.0
 11
14256.99598571424
 21
472.4555211053666
 31
0.0
  0
LINE
  5
F2B7
330
1F
100
AcDbEntity
  8
D-TTL-TXT
100
AcDbLine
 10
14301.32449603229
 20
472.4555211053666
 30
0.0
 11
14294.78363139162
 21
447.927017932777
 31
0.0
  0
LINE
  5
F2B8
330
1F
100
AcDbEntity
  8
D-TTL-TXT
100
AcDbLine
 10
14290.27692424523
 20
447.927017932777
 30
0.0
 11
14284.82616894198
 21
472.4555211053666
 31
0.0
  0
LINE
  5
F2B9
330
1F
100
AcDbEntity
  8
D-TTL-TXT
100
AcDbLine
 10
14314.57487665422
 20
450.7575232754946
 30
0.0
 11
14319.17864996365
 21
468.0209355784609
 31
0.0
  0
LINE
  5
F2BA
330
1F
100
AcDbEntity
  8
D-TTL-TXT
100
AcDbLine
 10
14323.97488666913
 20
468.0209355784609
 30
0.0
 11
14328.57865997859
 21
450.7575232754946
 31
0.0
  0
LINE
  5
F2BB
330
1F
100
AcDbEntity
  8
D-TTL-TXT
100
AcDbLine
 10
14207.94333050791
 20
445.5199439821783
 30
0.0
 11
14208.16288421476
 21
444.9382026549913
 31
0.0
  0
LINE
  5
F2BC
330
1F
100
AcDbEntity
  8
D-TTL-TXT
100
AcDbLine
 10
14216.54994310422
 20
445.6553657336528
 30
0.0
 11
14216.66357935832
 21
445.2090461581247
 31
0.0
  0
LINE
  5
F2BD
330
1F
100
AcDbEntity
  8
D-TTL-TXT
100
AcDbLine
 10
14231.8269412329
 20
445.2090461581247
 30
0.0
 11
14231.94057748704
 21
445.6553657336528
 31
0.0
  0
LINE
  5
F2BE
330
1F
100
AcDbEntity
  8
D-TTL-TXT
100
AcDbLine
 10
14196.74528679668
 20
435.0028237259878
 30
0.0
 11
14196.74528679668
 21
472.4555211053666
 31
0.0
  0
LINE
  5
F2BF
330
1F
100
AcDbEntity
  8
D-TTL-TXT
100
AcDbLine
 10
14193.39622104951
 20
472.4555211053666
 30
0.0
 11
14193.39622104951
 21
435.0028237259878
 31
0.0
  0
LINE
  5
F2C0
330
1F
100
AcDbEntity
  8
D-TTL-TXT
100
AcDbLine
 10
14195.8962186403
 20
472.4555211053666
 30
0.0
 11
14195.8962186403
 21
435.0028237259878
 31
0.0
  0
LINE
  5
F2C1
330
1F
100
AcDbEntity
  8
D-TTL-TXT
100
AcDbLine
 10
14208.16288421476
 20
444.9382026549913
 30
0.0
 11
14208.39802453603
 21
444.3659980707889
 31
0.0
  0
LINE
  5
F2C2
330
1F
100
AcDbEntity
  8
D-TTL-TXT
100
AcDbLine
 10
14208.39802453603
 20
444.3659980707889
 30
0.0
 11
14208.64952633215
 21
443.8052375783784
 31
0.0
  0
LINE
  5
F2C3
330
1F
100
AcDbEntity
  8
D-TTL-TXT
100
AcDbLine
 10
14208.64952633215
 20
443.8052375783784
 30
0.0
 11
14208.91825387047
 21
443.2578285262182
 31
0.0
  0
LINE
  5
F2C4
330
1F
100
AcDbEntity
  8
D-TTL-TXT
100
AcDbLine
 10
14208.91825387047
 20
443.2578285262182
 30
0.0
 11
14209.20522042987
 21
442.7218635658548
 31
0.0
  0
LINE
  5
F2C5
330
1F
100
AcDbEntity
  8
D-TTL-TXT
100
AcDbLine
 10
14209.20522042987
 20
442.7218635658548
 30
0.0
 11
14209.51146909164
 21
442.1992500455574
 31
0.0
  0
LINE
  5
F2C6
330
1F
100
AcDbEntity
  8
D-TTL-TXT
100
AcDbLine
 10
14209.51146909164
 20
442.1992500455574
 30
0.0
 11
14209.83804293712
 21
441.6918953143224
 31
0.0
  0
LINE
  5
F2C7
330
1F
100
AcDbEntity
  8
D-TTL-TXT
100
AcDbLine
 10
14209.83804293712
 20
441.6918953143224
 30
0.0
 11
14210.1859850475
 21
441.1978920235172
 31
0.0
  0
LINE
  5
F2C8
330
1F
100
AcDbEntity
  8
D-TTL-TXT
100
AcDbLine
 10
14210.1859850475
 20
441.1978920235172
 30
0.0
 11
14210.55624909717
 21
440.7210548700434
 31
0.0
  0
LINE
  5
F2C9
330
1F
100
AcDbEntity
  8
D-TTL-TXT
100
AcDbLine
 10
14210.55624909717
 20
440.7210548700434
 30
0.0
 11
14210.94975895801
 21
440.2575691568199
 31
0.0
  0
LINE
  5
F2CA
330
1F
100
AcDbEntity
  8
D-TTL-TXT
100
AcDbLine
 10
14210.94975895801
 20
440.2575691568199
 30
0.0
 11
14211.36725968816
 21
439.8131569299196
 31
0.0
  0
LINE
  5
F2CB
330
1F
100
AcDbEntity
  8
D-TTL-TXT
100
AcDbLine
 10
14211.36725968816
 20
439.8131569299196
 30
0.0
 11
14211.8093175317
 21
439.3840034917229
 31
0.0
  0
LINE
  5
F2CC
330
1F
100
AcDbEntity
  8
D-TTL-TXT
100
AcDbLine
 10
14211.8093175317
 20
439.3840034917229
 30
0.0
 11
14212.27626031422
 21
438.9720161912166
 31
0.0
  0
LINE
  5
F2CD
330
1F
100
AcDbEntity
  8
D-TTL-TXT
100
AcDbLine
 10
14212.27626031422
 20
438.9720161912166
 30
0.0
 11
14212.76823704728
 21
438.579102376859
 31
0.0
  0
LINE
  5
F2CE
330
1F
100
AcDbEntity
  8
D-TTL-TXT
100
AcDbLine
 10
14212.76823704728
 20
438.579102376859
 30
0.0
 11
14213.28509871932
 21
438.203354699833
 31
0.0
  0
LINE
  5
F2CF
330
1F
100
AcDbEntity
  8
D-TTL-TXT
100
AcDbLine
 10
14213.28509871932
 20
438.203354699833
 30
0.0
 11
14213.82636849306
 21
437.8485878577678
 31
0.0
  0
LINE
  5
F2D0
330
1F
100
AcDbEntity
  8
D-TTL-TXT
100
AcDbLine
 10
14213.82636849306
 20
437.8485878577678
 30
0.0
 11
14214.39124170592
 21
437.5109871530342
 31
0.0
  0
LINE
  5
F2D1
330
1F
100
AcDbEntity
  8
D-TTL-TXT
100
AcDbLine
 10
14214.39124170592
 20
437.5109871530342
 30
0.0
 11
14214.97867527665
 21
437.1943672832615
 31
0.0
  0
LINE
  5
F2D2
330
1F
100
AcDbEntity
  8
D-TTL-TXT
100
AcDbLine
 10
14214.97867527665
 20
437.1943672832615
 30
0.0
 11
14215.58720889141
 21
436.8987282480859
 31
0.0
  0
LINE
  5
F2D3
330
1F
100
AcDbEntity
  8
D-TTL-TXT
100
AcDbLine
 10
14215.58720889141
 20
436.8987282480859
 30
0.0
 11
14216.21505441086
 21
436.6221626990591
 31
0.0
  0
LINE
  5
F2D4
330
1F
100
AcDbEntity
  8
D-TTL-TXT
100
AcDbLine
 10
14232.27543637808
 20
436.6221626990591
 30
0.0
 11
14232.90328189752
 21
436.8987282480859
 31
0.0
  0
LINE
  5
F2D5
330
1F
100
AcDbEntity
  8
D-TTL-TXT
100
AcDbLine
 10
14232.90328189752
 20
436.8987282480859
 30
0.0
 11
14233.51181551229
 21
437.1943672832615
 31
0.0
  0
LINE
  5
F2D6
330
1F
100
AcDbEntity
  8
D-TTL-TXT
100
AcDbLine
 10
14233.51181551229
 20
437.1943672832615
 30
0.0
 11
14234.09924908294
 21
437.5109871530342
 31
0.0
  0
LINE
  5
F2D7
330
1F
100
AcDbEntity
  8
D-TTL-TXT
100
AcDbLine
 10
14234.09924908294
 20
437.5109871530342
 30
0.0
 11
14234.66415209816
 21
437.8485878577678
 31
0.0
  0
LINE
  5
F2D8
330
1F
100
AcDbEntity
  8
D-TTL-TXT
100
AcDbLine
 10
14234.66415209816
 20
437.8485878577678
 30
0.0
 11
14235.20539206962
 21
438.203354699833
 31
0.0
  0
LINE
  5
F2D9
330
1F
100
AcDbEntity
  8
D-TTL-TXT
100
AcDbLine
 10
14235.20539206962
 20
438.203354699833
 30
0.0
 11
14235.72225374166
 21
438.579102376859
 31
0.0
  0
LINE
  5
F2DA
330
1F
100
AcDbEntity
  8
D-TTL-TXT
100
AcDbLine
 10
14235.72225374166
 20
438.579102376859
 30
0.0
 11
14236.21423047469
 21
438.9720161912166
 31
0.0
  0
LINE
  5
F2DB
330
1F
100
AcDbEntity
  8
D-TTL-TXT
100
AcDbLine
 10
14236.21423047469
 20
438.9720161912166
 30
0.0
 11
14236.68120305953
 21
439.3840034917229
 31
0.0
  0
LINE
  5
F2DC
330
1F
100
AcDbEntity
  8
D-TTL-TXT
100
AcDbLine
 10
14236.68120305953
 20
439.3840034917229
 30
0.0
 11
14237.12323110077
 21
439.8131569299196
 31
0.0
  0
LINE
  5
F2DD
330
1F
100
AcDbEntity
  8
D-TTL-TXT
100
AcDbLine
 10
14237.12323110077
 20
439.8131569299196
 30
0.0
 11
14237.54073183093
 21
440.2575691568199
 31
0.0
  0
LINE
  5
F2DE
330
1F
100
AcDbEntity
  8
D-TTL-TXT
100
AcDbLine
 10
14216.66357935832
 20
445.2090461581247
 30
0.0
 11
14216.78609670445
 21
444.774170674209
 31
0.0
  0
LINE
  5
F2DF
330
1F
100
AcDbEntity
  8
D-TTL-TXT
100
AcDbLine
 10
14216.78609670445
 20
444.774170674209
 30
0.0
 11
14216.91841901451
 21
444.348831933273
 31
0.0
  0
LINE
  5
F2E0
330
1F
100
AcDbEntity
  8
D-TTL-TXT
100
AcDbLine
 10
14216.91841901451
 20
444.348831933273
 30
0.0
 11
14217.06138075358
 21
443.9349372841388
 31
0.0
  0
LINE
  5
F2E1
330
1F
100
AcDbEntity
  8
D-TTL-TXT
100
AcDbLine
 10
14217.06138075358
 20
443.9349372841388
 30
0.0
 11
14217.2159057936
 21
443.53439407525
 31
0.0
  0
LINE
  5
F2E2
330
1F
100
AcDbEntity
  8
D-TTL-TXT
100
AcDbLine
 10
14217.2159057936
 20
443.53439407525
 30
0.0
 11
14217.38276899498
 21
443.1452949579736
 31
0.0
  0
LINE
  5
F2E3
330
1F
100
AcDbEntity
  8
D-TTL-TXT
100
AcDbLine
 10
14217.38276899498
 20
443.1452949579736
 30
0.0
 11
14217.56274521809
 21
442.7695472811319
 31
0.0
  0
LINE
  5
F2E4
330
1F
100
AcDbEntity
  8
D-TTL-TXT
100
AcDbLine
 10
14217.56274521809
 20
442.7695472811319
 30
0.0
 11
14217.75654971865
 21
442.4071510445355
 31
0.0
  0
LINE
  5
F2E5
330
1F
100
AcDbEntity
  8
D-TTL-TXT
100
AcDbLine
 10
14217.75654971865
 20
442.4071510445355
 30
0.0
 11
14217.96471893842
 21
442.0581062481844
 31
0.0
  0
LINE
  5
F2E6
330
1F
100
AcDbEntity
  8
D-TTL-TXT
100
AcDbLine
 10
14217.96471893842
 20
442.0581062481844
 30
0.0
 11
14218.1876403077
 21
441.7224128920836
 31
0.0
  0
LINE
  5
F2E7
330
1F
100
AcDbEntity
  8
D-TTL-TXT
100
AcDbLine
 10
14218.1876403077
 20
441.722412892268
 30
0.0
 11
14218.42555224491
 21
441.4038856736781
 31
0.0
  0
LINE
  5
F2E8
330
1F
100
AcDbEntity
  8
D-TTL-TXT
100
AcDbLine
 10
14218.42555224491
 20
441.4038856736781
 30
0.0
 11
14218.67845475019
 21
441.0987098955229
 31
0.0
  0
LINE
  5
F2E9
330
1F
100
AcDbEntity
  8
D-TTL-TXT
100
AcDbLine
 10
14218.67845475019
 20
441.0987098955229
 30
0.0
 11
14218.94622861415
 21
440.8087929062458
 31
0.0
  0
LINE
  5
F2EA
330
1F
100
AcDbEntity
  8
D-TTL-TXT
100
AcDbLine
 10
14218.94622861415
 20
440.8087929062458
 30
0.0
 11
14219.22839699965
 21
440.5341347058468
 31
0.0
  0
LINE
  5
F2EB
330
1F
100
AcDbEntity
  8
D-TTL-TXT
100
AcDbLine
 10
14219.22839699965
 20
440.5341347058468
 30
0.0
 11
14219.52436386037
 21
440.2766426429637
 31
0.0
  0
LINE
  5
F2EC
330
1F
100
AcDbEntity
  8
D-TTL-TXT
100
AcDbLine
 10
14219.52436386037
 20
440.2766426429637
 30
0.0
 11
14219.83320532422
 21
440.0344093691431
 31
0.0
  0
LINE
  5
F2ED
330
1F
100
AcDbEntity
  8
D-TTL-TXT
100
AcDbLine
 10
14219.83320532422
 20
440.0344093691431
 30
0.0
 11
14220.15381870522
 21
439.8112495812868
 31
0.0
  0
LINE
  5
F2EE
330
1F
100
AcDbEntity
  8
D-TTL-TXT
100
AcDbLine
 10
14220.15381870522
 20
439.8112495812868
 30
0.0
 11
14220.48483309668
 21
439.6033485823136
 31
0.0
  0
LINE
  5
F2EF
330
1F
100
AcDbEntity
  8
D-TTL-TXT
100
AcDbLine
 10
14220.48483309668
 20
439.6033485823136
 30
0.0
 11
14220.82466897547
 21
439.4126137210307
 31
0.0
  0
LINE
  5
F2F0
330
1F
100
AcDbEntity
  8
D-TTL-TXT
100
AcDbLine
 10
14220.82466897547
 20
439.4126137210307
 30
0.0
 11
14221.17153820225
 21
439.2390449970844
 31
0.0
  0
LINE
  5
F2F1
330
1F
100
AcDbEntity
  8
D-TTL-TXT
100
AcDbLine
 10
14221.17153820225
 20
439.2390449970844
 30
0.0
 11
14221.52344402148
 21
439.0826424108284
 31
0.0
  0
LINE
  5
F2F2
330
1F
100
AcDbEntity
  8
D-TTL-TXT
100
AcDbLine
 10
14221.52344402148
 20
439.0826424108284
 30
0.0
 11
14221.8782704683
 21
438.9453133105416
 31
0.0
  0
LINE
  5
F2F3
330
1F
100
AcDbEntity
  8
D-TTL-TXT
100
AcDbLine
 10
14221.8782704683
 20
438.9453133105416
 30
0.0
 11
14222.23372276389
 21
438.8270576965781
 31
0.0
  0
LINE
  5
F2F4
330
1F
100
AcDbEntity
  8
D-TTL-TXT
100
AcDbLine
 10
14222.23372276389
 20
438.8270576965781
 30
0.0
 11
14222.58744652474
 21
438.7240608714976
 31
0.0
  0
LINE
  5
F2F5
330
1F
100
AcDbEntity
  8
D-TTL-TXT
100
AcDbLine
 10
14222.58744652474
 20
438.7240608714976
 30
0.0
 11
14222.93699796053
 21
438.6420448810143
 31
0.0
  0
LINE
  5
F2F6
330
1F
100
AcDbEntity
  8
D-TTL-TXT
100
AcDbLine
 10
14222.93699796053
 20
438.6420448810143
 30
0.0
 11
14223.27996308315
 21
438.5771950282262
 31
0.0
  0
LINE
  5
F2F7
330
1F
100
AcDbEntity
  8
D-TTL-TXT
100
AcDbLine
 10
14223.27996308315
 20
438.5771950282262
 30
0.0
 11
14223.61386829984
 21
438.5295113127697
 31
0.0
  0
LINE
  5
F2F8
330
1F
100
AcDbEntity
  8
D-TTL-TXT
100
AcDbLine
 10
14223.61386829984
 20
438.5295113127697
 30
0.0
 11
14223.93638902947
 21
438.5028084322741
 31
0.0
  0
LINE
  5
F2F9
330
1F
100
AcDbEntity
  8
D-TTL-TXT
100
AcDbLine
 10
14223.93638902947
 20
438.5028084322741
 30
0.0
 11
14224.24526029561
 21
438.4932716891101
 31
0.0
  0
LINE
  5
F2FA
330
1F
100
AcDbEntity
  8
D-TTL-TXT
100
AcDbLine
 10
14224.24526029561
 20
438.4932716891101
 30
0.0
 11
14224.55410175946
 21
438.5028084322741
 31
0.0
  0
LINE
  5
F2FB
330
1F
100
AcDbEntity
  8
D-TTL-TXT
100
AcDbLine
 10
14224.55410175946
 20
438.5028084322741
 30
0.0
 11
14224.87662248907
 21
438.5295113127697
 31
0.0
  0
LINE
  5
F2FC
330
1F
100
AcDbEntity
  8
D-TTL-TXT
100
AcDbLine
 10
14224.87662248907
 20
438.5295113127697
 30
0.0
 11
14225.21052770578
 21
438.5771950282262
 31
0.0
  0
LINE
  5
F2FD
330
1F
100
AcDbEntity
  8
D-TTL-TXT
100
AcDbLine
 10
14225.21052770578
 20
438.5771950282262
 30
0.0
 11
14225.5534928284
 21
438.6420448810143
 31
0.0
  0
LINE
  5
F2FE
330
1F
100
AcDbEntity
  8
D-TTL-TXT
100
AcDbLine
 10
14225.5534928284
 20
438.6420448810143
 30
0.0
 11
14225.90304426419
 21
438.7240608714976
 31
0.0
  0
LINE
  5
F2FF
330
1F
100
AcDbEntity
  8
D-TTL-TXT
100
AcDbLine
 10
14225.90304426419
 20
438.7240608714976
 30
0.0
 11
14226.25676802505
 21
438.8270576965781
 31
0.0
  0
LINE
  5
F300
330
1F
100
AcDbEntity
  8
D-TTL-TXT
100
AcDbLine
 10
14226.25676802505
 20
438.8270576965781
 30
0.0
 11
14226.61222032064
 21
438.9453133105416
 31
0.0
  0
LINE
  5
F301
330
1F
100
AcDbEntity
  8
D-TTL-TXT
100
AcDbLine
 10
14226.61222032064
 20
438.9453133105416
 30
0.0
 11
14226.96704676742
 21
439.0826424108284
 31
0.0
  0
LINE
  5
F302
330
1F
100
AcDbEntity
  8
D-TTL-TXT
100
AcDbLine
 10
14226.96704676742
 20
439.0826424108284
 30
0.0
 11
14227.31895258668
 21
439.2390449970844
 31
0.0
  0
LINE
  5
F303
330
1F
100
AcDbEntity
  8
D-TTL-TXT
100
AcDbLine
 10
14227.31895258668
 20
439.2390449970844
 30
0.0
 11
14227.66582181346
 21
439.4126137210307
 31
0.0
  0
LINE
  5
F304
330
1F
100
AcDbEntity
  8
D-TTL-TXT
100
AcDbLine
 10
14227.66582181346
 20
439.4126137210307
 30
0.0
 11
14228.00565769223
 21
439.6033485823136
 31
0.0
  0
LINE
  5
F305
330
1F
100
AcDbEntity
  8
D-TTL-TXT
100
AcDbLine
 10
14228.00565769223
 20
439.6033485823136
 30
0.0
 11
14228.33667208371
 21
439.8112495812868
 31
0.0
  0
LINE
  5
F306
330
1F
100
AcDbEntity
  8
D-TTL-TXT
100
AcDbLine
 10
14228.33667208371
 20
439.8112495812868
 30
0.0
 11
14228.65728546472
 21
440.0344093691431
 31
0.0
  0
LINE
  5
F307
330
1F
100
AcDbEntity
  8
D-TTL-TXT
100
AcDbLine
 10
14228.65728546472
 20
440.0344093691431
 30
0.0
 11
14228.96615673086
 21
440.2766426429637
 31
0.0
  0
LINE
  5
F308
330
1F
100
AcDbEntity
  8
D-TTL-TXT
100
AcDbLine
 10
14228.96615673086
 20
440.2766426429637
 30
0.0
 11
14229.26209378922
 21
440.5341347058468
 31
0.0
  0
LINE
  5
F309
330
1F
100
AcDbEntity
  8
D-TTL-TXT
100
AcDbLine
 10
14229.26209378922
 20
440.5341347058468
 30
0.0
 11
14229.54429197711
 21
440.8087929062458
 31
0.0
  0
LINE
  5
F30A
330
1F
100
AcDbEntity
  8
D-TTL-TXT
100
AcDbLine
 10
14229.54429197711
 20
440.8087929062458
 30
0.0
 11
14229.81203603875
 21
441.0987098955229
 31
0.0
  0
LINE
  5
F30B
330
1F
100
AcDbEntity
  8
D-TTL-TXT
100
AcDbLine
 10
14229.81203603875
 20
441.0987098955229
 30
0.0
 11
14230.06496834634
 21
441.4038856736781
 31
0.0
  0
LINE
  5
F30C
330
1F
100
AcDbEntity
  8
D-TTL-TXT
100
AcDbLine
 10
14230.06496834634
 20
441.4038856736781
 30
0.0
 11
14230.30288028356
 21
441.722412892268
 31
0.0
  0
LINE
  5
F30D
330
1F
100
AcDbEntity
  8
D-TTL-TXT
100
AcDbLine
 10
14230.30288028356
 20
441.722412892268
 30
0.0
 11
14230.52580165281
 21
442.0581062481844
 31
0.0
  0
LINE
  5
F30E
330
1F
100
AcDbEntity
  8
D-TTL-TXT
100
AcDbLine
 10
14230.52580165281
 20
442.0581062481844
 30
0.0
 11
14230.73394107025
 21
442.4071510445355
 31
0.0
  0
LINE
  5
F30F
330
1F
100
AcDbEntity
  8
D-TTL-TXT
100
AcDbLine
 10
14230.73394107025
 20
442.4071510445355
 30
0.0
 11
14230.92774557084
 21
442.7695472811319
 31
0.0
  0
LINE
  5
F310
330
1F
100
AcDbEntity
  8
D-TTL-TXT
100
AcDbLine
 10
14230.92774557084
 20
442.7695472811319
 30
0.0
 11
14231.10775159625
 21
443.1452949579736
 31
0.0
  0
LINE
  5
F311
330
1F
100
AcDbEntity
  8
D-TTL-TXT
100
AcDbLine
 10
14231.10775159625
 20
443.1452949579736
 30
0.0
 11
14231.27461479762
 21
443.53439407525
 31
0.0
  0
LINE
  5
F312
330
1F
100
AcDbEntity
  8
D-TTL-TXT
100
AcDbLine
 10
14231.27461479762
 20
443.53439407525
 30
0.0
 11
14231.42911003536
 21
443.9349372841388
 31
0.0
  0
LINE
  5
F313
330
1F
100
AcDbEntity
  8
D-TTL-TXT
100
AcDbLine
 10
14231.42911003536
 20
443.9349372841388
 30
0.0
 11
14231.57210157672
 21
444.348831933273
 31
0.0
  0
LINE
  5
F314
330
1F
100
AcDbEntity
  8
D-TTL-TXT
100
AcDbLine
 10
14231.57210157672
 20
444.348831933273
 30
0.0
 11
14231.70439408449
 21
444.774170674209
 31
0.0
  0
LINE
  5
F315
330
1F
100
AcDbEntity
  8
D-TTL-TXT
100
AcDbLine
 10
14231.70439408449
 20
444.774170674209
 30
0.0
 11
14231.8269412329
 21
445.2090461581247
 31
0.0
  0
LINE
  5
F316
330
1F
100
AcDbEntity
  8
D-TTL-TXT
100
AcDbLine
 10
14208.53475758977
 20
444.9553687925072
 30
0.0
 11
14217.18807042478
 21
444.9553687925072
 31
0.0
  0
LINE
  5
F317
330
1F
100
AcDbEntity
  8
D-TTL-TXT
100
AcDbLine
 10
14210.04579492441
 20
442.4548347598077
 30
0.0
 11
14218.43869506894
 21
442.4548347598077
 31
0.0
  0
LINE
  5
F318
330
1F
100
AcDbEntity
  8
D-TTL-TXT
100
AcDbLine
 10
14212.19713514907
 20
439.9543007272925
 30
0.0
 11
14220.55522618146
 21
439.9543007272925
 31
0.0
  0
LINE
  5
F319
330
1F
100
AcDbEntity
  8
D-TTL-TXT
100
AcDbLine
 10
14215.44657173345
 20
437.4556740432308
 30
0.0
 11
14233.04397866006
 21
437.4556740432308
 31
0.0
  0
LINE
  5
F31A
330
1F
100
AcDbEntity
  8
D-TTL-TXT
100
AcDbLine
 10
14227.93529440981
 20
439.9543007272925
 30
0.0
 11
14236.29338544215
 21
439.9543007272925
 31
0.0
  0
LINE
  5
F31B
330
1F
100
AcDbEntity
  8
D-TTL-TXT
100
AcDbLine
 10
14216.21505441086
 20
436.6221626990591
 30
0.0
 11
14216.86012567251
 21
436.3665779848088
 31
0.0
  0
LINE
  5
F31C
330
1F
100
AcDbEntity
  8
D-TTL-TXT
100
AcDbLine
 10
14231.6303651164
 20
436.3665779848088
 30
0.0
 11
14232.27543637808
 21
436.6221626990591
 31
0.0
  0
LINE
  5
F31D
330
1F
100
AcDbEntity
  8
D-TTL-TXT
100
AcDbLine
 10
14216.86012567251
 20
436.3665779848088
 30
0.0
 11
14217.52003849051
 21
436.1319741053351
 31
0.0
  0
LINE
  5
F31E
330
1F
100
AcDbEntity
  8
D-TTL-TXT
100
AcDbLine
 10
14217.52003849051
 20
436.1319741053351
 30
0.0
 11
14218.19205105133
 21
435.9183510606428
 31
0.0
  0
LINE
  5
F31F
330
1F
100
AcDbEntity
  8
D-TTL-TXT
100
AcDbLine
 10
14218.19205105133
 20
435.9183510606428
 30
0.0
 11
14218.87324272735
 21
435.7276161991806
 31
0.0
  0
LINE
  5
F320
330
1F
100
AcDbEntity
  8
D-TTL-TXT
100
AcDbLine
 10
14218.87324272735
 20
435.7276161991806
 30
0.0
 11
14219.56039486777
 21
435.5597695213121
 31
0.0
  0
LINE
  5
F321
330
1F
100
AcDbEntity
  8
D-TTL-TXT
100
AcDbLine
 10
14219.56039486777
 20
435.5597695213121
 30
0.0
 11
14220.25016961252
 21
435.4129036780407
 31
0.0
  0
LINE
  5
F322
330
1F
100
AcDbEntity
  8
D-TTL-TXT
100
AcDbLine
 10
14220.25016961252
 20
435.4129036780407
 30
0.0
 11
14220.93908008992
 21
435.2870186693665
 31
0.0
  0
LINE
  5
F323
330
1F
100
AcDbEntity
  8
D-TTL-TXT
100
AcDbLine
 10
14220.93908008992
 20
435.2870186693665
 30
0.0
 11
14221.62352021907
 21
435.1859291929188
 31
0.0
  0
LINE
  5
F324
330
1F
100
AcDbEntity
  8
D-TTL-TXT
100
AcDbLine
 10
14221.62352021907
 20
435.1859291929188
 30
0.0
 11
14222.29991372121
 21
435.1058205510683
 31
0.0
  0
LINE
  5
F325
330
1F
100
AcDbEntity
  8
D-TTL-TXT
100
AcDbLine
 10
14222.29991372121
 20
435.1058205510683
 30
0.0
 11
14222.96462471309
 21
435.0486000928115
 31
0.0
  0
LINE
  5
F326
330
1F
100
AcDbEntity
  8
D-TTL-TXT
100
AcDbLine
 10
14222.96462471309
 20
435.0486000928115
 30
0.0
 11
14223.61419612539
 21
435.0142678177847
 31
0.0
  0
LINE
  5
F327
330
1F
100
AcDbEntity
  8
D-TTL-TXT
100
AcDbLine
 10
14223.61419612539
 20
435.0142678177847
 30
0.0
 11
14224.24523049329
 21
435.0028237259878
 31
0.0
  0
LINE
  5
F328
330
1F
100
AcDbEntity
  8
D-TTL-TXT
100
AcDbLine
 10
14224.24523049329
 20
435.0028237259878
 30
0.0
 11
14224.87629466352
 21
435.0142678177847
 31
0.0
  0
LINE
  5
F329
330
1F
100
AcDbEntity
  8
D-TTL-TXT
100
AcDbLine
 10
14224.87629466352
 20
435.0142678177847
 30
0.0
 11
14225.5258660758
 21
435.0486000928115
 31
0.0
  0
LINE
  5
F32A
330
1F
100
AcDbEntity
  8
D-TTL-TXT
100
AcDbLine
 10
14225.5258660758
 20
435.0486000928115
 30
0.0
 11
14226.19057706772
 21
435.1058205510683
 31
0.0
  0
LINE
  5
F32B
330
1F
100
AcDbEntity
  8
D-TTL-TXT
100
AcDbLine
 10
14226.19057706772
 20
435.1058205510683
 30
0.0
 11
14226.86694076754
 21
435.1859291929188
 31
0.0
  0
LINE
  5
F32C
330
1F
100
AcDbEntity
  8
D-TTL-TXT
100
AcDbLine
 10
14226.86694076754
 20
435.1859291929188
 30
0.0
 11
14227.55141069894
 21
435.2870186693665
 31
0.0
  0
LINE
  5
F32D
330
1F
100
AcDbEntity
  8
D-TTL-TXT
100
AcDbLine
 10
14227.55141069894
 20
435.2870186693665
 30
0.0
 11
14228.24032117639
 21
435.4129036780407
 31
0.0
  0
LINE
  5
F32E
330
1F
100
AcDbEntity
  8
D-TTL-TXT
100
AcDbLine
 10
14228.24032117639
 20
435.4129036780407
 30
0.0
 11
14228.93009592113
 21
435.5597695213121
 31
0.0
  0
LINE
  5
F32F
330
1F
100
AcDbEntity
  8
D-TTL-TXT
100
AcDbLine
 10
14228.93009592113
 20
435.5597695213121
 30
0.0
 11
14229.61724806158
 21
435.7276161991806
 31
0.0
  0
LINE
  5
F330
330
1F
100
AcDbEntity
  8
D-TTL-TXT
100
AcDbLine
 10
14229.61724806158
 20
435.7276161991806
 30
0.0
 11
14230.29843973756
 21
435.9183510606428
 31
0.0
  0
LINE
  5
F331
330
1F
100
AcDbEntity
  8
D-TTL-TXT
100
AcDbLine
 10
14230.29843973756
 20
435.9183510606428
 30
0.0
 11
14230.97045229835
 21
436.1319741053351
 31
0.0
  0
LINE
  5
F332
330
1F
100
AcDbEntity
  8
D-TTL-TXT
100
AcDbLine
 10
14230.97045229835
 20
436.1319741053351
 30
0.0
 11
14231.6303651164
 21
436.3665779848088
 31
0.0
  0
LINE
  5
F333
330
1F
100
AcDbEntity
  8
D-TTL-TXT
100
AcDbLine
 10
14194.38735687523
 20
500.8387758264871
 30
0.0
 11
14196.48195347865
 21
501.4243318507554
 31
0.0
  0
LINE
  5
F334
330
1F
100
AcDbEntity
  8
D-TTL-TXT
100
AcDbLine
 10
14192.87703479637
 20
585.5918114778615
 30
0.0
 11
14195.19282423437
 21
586.5493004820746
 31
0.0
  0
LINE
  5
F335
330
1F
100
AcDbEntity
  8
D-TTL-TXT
100
AcDbLine
 10
14192.66552771652
 20
585.5078881389247
 30
0.0
 11
14228.4433941991
 21
616.0655202796236
 31
0.0
  0
LINE
  5
F336
330
1F
100
AcDbEntity
  8
D-TTL-TXT
100
AcDbLine
 10
14192.34488453312
 20
500.3295137466193
 30
0.0
 11
14194.38735687523
 21
500.8387758264871
 31
0.0
  0
LINE
  5
F337
330
1F
100
AcDbEntity
  8
D-TTL-TXT
100
AcDbLine
 10
14237.54079143557
 20
467.2007756745345
 30
0.0
 11
14237.12329070542
 21
467.6451879016142
 31
0.0
  0
LINE
  5
F338
330
1F
100
AcDbEntity
  8
D-TTL-TXT
100
AcDbLine
 10
14237.12329070542
 20
467.6451879016142
 30
0.0
 11
14236.68126266417
 21
468.0743413396315
 31
0.0
  0
LINE
  5
F339
330
1F
100
AcDbEntity
  8
D-TTL-TXT
100
AcDbLine
 10
14236.68126266417
 20
468.0743413396315
 30
0.0
 11
14236.21429007934
 21
468.4863286401378
 31
0.0
  0
LINE
  5
F33A
330
1F
100
AcDbEntity
  8
D-TTL-TXT
100
AcDbLine
 10
14236.21429007934
 20
468.4863286401378
 30
0.0
 11
14235.72231334631
 21
468.8792424546748
 31
0.0
  0
LINE
  5
F33B
330
1F
100
AcDbEntity
  8
D-TTL-TXT
100
AcDbLine
 10
14235.72231334631
 20
468.8792424546748
 30
0.0
 11
14235.20545167426
 21
469.2549901315214
 31
0.0
  0
LINE
  5
F33C
330
1F
100
AcDbEntity
  8
D-TTL-TXT
100
AcDbLine
 10
14235.20545167426
 20
469.2549901315214
 30
0.0
 11
14234.6642117028
 21
469.609756973766
 31
0.0
  0
LINE
  5
F33D
330
1F
100
AcDbEntity
  8
D-TTL-TXT
100
AcDbLine
 10
14234.6642117028
 20
469.609756973766
 30
0.0
 11
14234.09930868758
 21
469.9473576783202
 31
0.0
  0
LINE
  5
F33E
330
1F
100
AcDbEntity
  8
D-TTL-TXT
100
AcDbLine
 10
14234.09930868758
 20
469.9473576783202
 30
0.0
 11
14233.51187511693
 21
470.2639775482723
 31
0.0
  0
LINE
  5
F33F
330
1F
100
AcDbEntity
  8
D-TTL-TXT
100
AcDbLine
 10
14233.51187511693
 20
470.2639775482723
 30
0.0
 11
14232.90334150217
 21
470.5596165832685
 31
0.0
  0
LINE
  5
F340
330
1F
100
AcDbEntity
  8
D-TTL-TXT
100
AcDbLine
 10
14232.90334150217
 20
470.5596165832685
 30
0.0
 11
14232.27549598273
 21
470.8361821322953
 31
0.0
  0
LINE
  5
F341
330
1F
100
AcDbEntity
  8
D-TTL-TXT
100
AcDbLine
 10
14232.27549598273
 20
470.8361821322953
 30
0.0
 11
14231.63039491873
 21
471.0917668465456
 31
0.0
  0
LINE
  5
F342
330
1F
100
AcDbEntity
  8
D-TTL-TXT
100
AcDbLine
 10
14231.63039491873
 20
471.0917668465456
 30
0.0
 11
14230.970511903
 21
471.3263707260193
 31
0.0
  0
LINE
  5
F343
330
1F
100
AcDbEntity
  8
D-TTL-TXT
100
AcDbLine
 10
14230.970511903
 20
471.3263707260193
 30
0.0
 11
14230.2984993422
 21
471.539993770891
 31
0.0
  0
LINE
  5
F344
330
1F
100
AcDbEntity
  8
D-TTL-TXT
100
AcDbLine
 10
14230.2984993422
 20
471.539993770891
 30
0.0
 11
14229.61730766623
 21
471.7307286321738
 31
0.0
  0
LINE
  5
F345
330
1F
100
AcDbEntity
  8
D-TTL-TXT
100
AcDbLine
 10
14229.61730766623
 20
471.7307286321738
 30
0.0
 11
14228.93012572345
 21
471.8985753102217
 31
0.0
  0
LINE
  5
F346
330
1F
100
AcDbEntity
  8
D-TTL-TXT
100
AcDbLine
 10
14228.93012572345
 20
471.8985753102217
 30
0.0
 11
14228.24035097871
 21
472.0454411534931
 31
0.0
  0
LINE
  5
F347
330
1F
100
AcDbEntity
  8
D-TTL-TXT
100
AcDbLine
 10
14228.24035097871
 20
472.0454411534931
 30
0.0
 11
14227.55144050126
 21
472.1713261619879
 31
0.0
  0
LINE
  5
F348
330
1F
100
AcDbEntity
  8
D-TTL-TXT
100
AcDbLine
 10
14227.55144050126
 20
472.1713261619879
 30
0.0
 11
14226.86697056986
 21
472.2724156384356
 31
0.0
  0
LINE
  5
F349
330
1F
100
AcDbEntity
  8
D-TTL-TXT
100
AcDbLine
 10
14226.86697056986
 20
472.2724156384356
 30
0.0
 11
14226.19060687005
 21
472.3525242802861
 31
0.0
  0
LINE
  5
F34A
330
1F
100
AcDbEntity
  8
D-TTL-TXT
100
AcDbLine
 10
14226.19060687005
 20
472.3525242802861
 30
0.0
 11
14225.52589587813
 21
472.4097447387223
 31
0.0
  0
LINE
  5
F34B
330
1F
100
AcDbEntity
  8
D-TTL-TXT
100
AcDbLine
 10
14225.52589587813
 20
472.4097447387223
 30
0.0
 11
14224.87632446584
 21
472.4440770137491
 31
0.0
  0
LINE
  5
F34C
330
1F
100
AcDbEntity
  8
D-TTL-TXT
100
AcDbLine
 10
14224.87632446584
 20
472.4440770137491
 30
0.0
 11
14224.24526029561
 21
472.4555211053666
 31
0.0
  0
LINE
  5
F34D
330
1F
100
AcDbEntity
  8
D-TTL-TXT
100
AcDbLine
 10
14224.24526029561
 20
472.4555211053666
 30
0.0
 11
14223.61419612539
 21
472.4440770137491
 31
0.0
  0
LINE
  5
F34E
330
1F
100
AcDbEntity
  8
D-TTL-TXT
100
AcDbLine
 10
14223.61419612539
 20
472.4440770137491
 30
0.0
 11
14222.96462471309
 21
472.4097447387223
 31
0.0
  0
LINE
  5
F34F
330
1F
100
AcDbEntity
  8
D-TTL-TXT
100
AcDbLine
 10
14222.96462471309
 20
472.4097447387223
 30
0.0
 11
14222.29988391889
 21
472.3525242802861
 31
0.0
  0
LINE
  5
F350
330
1F
100
AcDbEntity
  8
D-TTL-TXT
100
AcDbLine
 10
14222.29988391889
 20
472.3525242802861
 30
0.0
 11
14221.62352021907
 21
472.2724156384356
 31
0.0
  0
LINE
  5
F351
330
1F
100
AcDbEntity
  8
D-TTL-TXT
100
AcDbLine
 10
14221.62352021907
 20
472.2724156384356
 30
0.0
 11
14220.93908008992
 21
472.1713261619879
 31
0.0
  0
LINE
  5
F352
330
1F
100
AcDbEntity
  8
D-TTL-TXT
100
AcDbLine
 10
14220.93908008992
 20
472.1713261619879
 30
0.0
 11
14220.25016961252
 21
472.0454411534931
 31
0.0
  0
LINE
  5
F353
330
1F
100
AcDbEntity
  8
D-TTL-TXT
100
AcDbLine
 10
14220.25016961252
 20
472.0454411534931
 30
0.0
 11
14219.56036506544
 21
471.8985753102217
 31
0.0
  0
LINE
  5
F354
330
1F
100
AcDbEntity
  8
D-TTL-TXT
100
AcDbLine
 10
14219.56036506544
 20
471.8985753102217
 30
0.0
 11
14218.8731831227
 21
471.7307286321738
 31
0.0
  0
LINE
  5
F355
330
1F
100
AcDbEntity
  8
D-TTL-TXT
100
AcDbLine
 10
14218.8731831227
 20
471.7307286321738
 30
0.0
 11
14218.19202124901
 21
471.539993770891
 31
0.0
  0
LINE
  5
F356
330
1F
100
AcDbEntity
  8
D-TTL-TXT
100
AcDbLine
 10
14218.19202124901
 20
471.539993770891
 30
0.0
 11
14217.51997888586
 21
471.3263707260193
 31
0.0
  0
LINE
  5
F357
330
1F
100
AcDbEntity
  8
D-TTL-TXT
100
AcDbLine
 10
14217.51997888586
 20
471.3263707260193
 30
0.0
 11
14216.86009587018
 21
471.0917668465456
 31
0.0
  0
LINE
  5
F358
330
1F
100
AcDbEntity
  8
D-TTL-TXT
100
AcDbLine
 10
14216.86009587018
 20
471.0917668465456
 30
0.0
 11
14216.21502460854
 21
470.8361821322953
 31
0.0
  0
LINE
  5
F359
330
1F
100
AcDbEntity
  8
D-TTL-TXT
100
AcDbLine
 10
14216.21502460854
 20
470.8361821322953
 30
0.0
 11
14215.58714928677
 21
470.5596165832685
 31
0.0
  0
LINE
  5
F35A
330
1F
100
AcDbEntity
  8
D-TTL-TXT
100
AcDbLine
 10
14215.58714928677
 20
470.5596165832685
 30
0.0
 11
14214.978615672
 21
470.2639775482723
 31
0.0
  0
LINE
  5
F35B
330
1F
100
AcDbEntity
  8
D-TTL-TXT
100
AcDbLine
 10
14214.978615672
 20
470.2639775482723
 30
0.0
 11
14214.3912119036
 21
469.9473576783202
 31
0.0
  0
LINE
  5
F35C
330
1F
100
AcDbEntity
  8
D-TTL-TXT
100
AcDbLine
 10
14214.3912119036
 20
469.9473576783202
 30
0.0
 11
14213.82630888842
 21
469.609756973766
 31
0.0
  0
LINE
  5
F35D
330
1F
100
AcDbEntity
  8
D-TTL-TXT
100
AcDbLine
 10
14213.82630888842
 20
469.609756973766
 30
0.0
 11
14213.28503911468
 21
469.2549901315214
 31
0.0
  0
LINE
  5
F35E
330
1F
100
AcDbEntity
  8
D-TTL-TXT
100
AcDbLine
 10
14213.28503911468
 20
469.2549901315214
 30
0.0
 11
14212.76817744263
 21
468.8792424546748
 31
0.0
  0
LINE
  5
F35F
330
1F
100
AcDbEntity
  8
D-TTL-TXT
100
AcDbLine
 10
14212.76817744263
 20
468.8792424546748
 30
0.0
 11
14212.27620070957
 21
468.4863286401378
 31
0.0
  0
LINE
  5
F360
330
1F
100
AcDbEntity
  8
D-TTL-TXT
100
AcDbLine
 10
14212.27620070957
 20
468.4863286401378
 30
0.0
 11
14211.80925792706
 21
468.0743413396315
 31
0.0
  0
LINE
  5
F361
330
1F
100
AcDbEntity
  8
D-TTL-TXT
100
AcDbLine
 10
14211.80925792706
 20
468.0743413396315
 30
0.0
 11
14211.36720008351
 21
467.6451879016142
 31
0.0
  0
LINE
  5
F362
330
1F
100
AcDbEntity
  8
D-TTL-TXT
100
AcDbLine
 10
14211.36720008351
 20
467.6451879016142
 30
0.0
 11
14210.94972915569
 21
467.1988683259017
 31
0.0
  0
LINE
  5
F363
330
1F
100
AcDbEntity
  8
D-TTL-TXT
100
AcDbLine
 10
14210.94972915569
 20
467.1988683259017
 30
0.0
 11
14210.55618949252
 21
466.7372899614904
 31
0.0
  0
LINE
  5
F364
330
1F
100
AcDbEntity
  8
D-TTL-TXT
100
AcDbLine
 10
14210.55618949252
 20
466.7372899614904
 30
0.0
 11
14210.18592544285
 21
466.2604528080167
 31
0.0
  0
LINE
  5
F365
330
1F
100
AcDbEntity
  8
D-TTL-TXT
100
AcDbLine
 10
14210.18592544285
 20
466.2604528080167
 30
0.0
 11
14209.83801313479
 21
465.766449517032
 31
0.0
  0
LINE
  5
F366
330
1F
100
AcDbEntity
  8
D-TTL-TXT
100
AcDbLine
 10
14209.83801313479
 20
465.766449517032
 30
0.0
 11
14209.51143928931
 21
465.259094785797
 31
0.0
  0
LINE
  5
F367
330
1F
100
AcDbEntity
  8
D-TTL-TXT
100
AcDbLine
 10
14209.51143928931
 20
465.259094785797
 30
0.0
 11
14209.20519062754
 21
464.736481265679
 31
0.0
  0
LINE
  5
F368
330
1F
100
AcDbEntity
  8
D-TTL-TXT
100
AcDbLine
 10
14209.20519062754
 20
464.736481265679
 30
0.0
 11
14208.91822406815
 21
464.2005163051362
 31
0.0
  0
LINE
  5
F369
330
1F
100
AcDbEntity
  8
D-TTL-TXT
100
AcDbLine
 10
14208.91822406815
 20
464.2005163051362
 30
0.0
 11
14208.64949652983
 21
463.653107252976
 31
0.0
  0
LINE
  5
F36A
330
1F
100
AcDbEntity
  8
D-TTL-TXT
100
AcDbLine
 10
14208.64949652983
 20
463.653107252976
 30
0.0
 11
14208.39799473371
 21
463.0923467605655
 31
0.0
  0
LINE
  5
F36B
330
1F
100
AcDbEntity
  8
D-TTL-TXT
100
AcDbLine
 10
14208.39799473371
 20
463.0923467605655
 30
0.0
 11
14208.16285441244
 21
462.5201421763631
 31
0.0
  0
LINE
  5
F36C
330
1F
100
AcDbEntity
  8
D-TTL-TXT
100
AcDbLine
 10
14208.16285441244
 20
462.5201421763631
 30
0.0
 11
14207.94330070559
 21
461.9384008491761
 31
0.0
  0
LINE
  5
F36D
330
1F
100
AcDbEntity
  8
D-TTL-TXT
100
AcDbLine
 10
14207.94330070559
 20
461.9384008491761
 30
0.0
 11
14207.73870776444
 21
461.3452154303716
 31
0.0
  0
LINE
  5
F36E
330
1F
100
AcDbEntity
  8
D-TTL-TXT
100
AcDbLine
 10
14207.73870776444
 20
461.3452154303716
 30
0.0
 11
14207.54862855418
 21
460.7444006170408
 31
0.0
  0
LINE
  5
F36F
330
1F
100
AcDbEntity
  8
D-TTL-TXT
100
AcDbLine
 10
14207.54862855418
 20
460.7444006170408
 30
0.0
 11
14207.3727352492
 21
460.134049060541
 31
0.0
  0
LINE
  5
F370
330
1F
100
AcDbEntity
  8
D-TTL-TXT
100
AcDbLine
 10
14207.3727352492
 20
460.134049060541
 30
0.0
 11
14207.21096824488
 21
459.5160681096943
 31
0.0
  0
LINE
  5
F371
330
1F
100
AcDbEntity
  8
D-TTL-TXT
100
AcDbLine
 10
14232.32103393085
 20
459.9261480617472
 30
0.0
 11
14232.23573968502
 21
460.40870726094
 31
0.0
  0
LINE
  5
F372
330
1F
100
AcDbEntity
  8
D-TTL-TXT
100
AcDbLine
 10
14232.23573968502
 20
460.40870726094
 30
0.0
 11
14232.14427635848
 21
460.8817297171481
 31
0.0
  0
LINE
  5
F373
330
1F
100
AcDbEntity
  8
D-TTL-TXT
100
AcDbLine
 10
14232.14427635848
 20
460.8817297171481
 30
0.0
 11
14232.04610750956
 21
461.3471227790044
 31
0.0
  0
LINE
  5
F374
330
1F
100
AcDbEntity
  8
D-TTL-TXT
100
AcDbLine
 10
14232.04610750956
 20
461.3471227790044
 30
0.0
 11
14231.94057748704
 21
461.8029790977016
 31
0.0
  0
LINE
  5
F375
330
1F
100
AcDbEntity
  8
D-TTL-TXT
100
AcDbLine
 10
14231.94057748704
 20
461.8029790977016
 30
0.0
 11
14231.82697103522
 21
462.2492986732297
 31
0.0
  0
LINE
  5
F376
330
1F
100
AcDbEntity
  8
D-TTL-TXT
100
AcDbLine
 10
14231.82697103522
 20
462.2492986732297
 30
0.0
 11
14231.70442388681
 21
462.6841741571454
 31
0.0
  0
LINE
  5
F377
330
1F
100
AcDbEntity
  8
D-TTL-TXT
100
AcDbLine
 10
14231.70442388681
 20
462.6841741571454
 30
0.0
 11
14231.57210157672
 21
463.1095128980814
 31
0.0
  0
LINE
  5
F378
330
1F
100
AcDbEntity
  8
D-TTL-TXT
100
AcDbLine
 10
14231.57210157672
 20
463.1095128980814
 30
0.0
 11
14231.42913983768
 21
463.5234075472156
 31
0.0
  0
LINE
  5
F379
330
1F
100
AcDbEntity
  8
D-TTL-TXT
100
AcDbLine
 10
14231.42913983768
 20
463.5234075472156
 30
0.0
 11
14231.27464459994
 21
463.9239507561044
 31
0.0
  0
LINE
  5
F37A
330
1F
100
AcDbEntity
  8
D-TTL-TXT
100
AcDbLine
 10
14231.27464459994
 20
463.9239507561044
 30
0.0
 11
14231.10778139857
 21
464.3130498733808
 31
0.0
  0
LINE
  5
F37B
330
1F
100
AcDbEntity
  8
D-TTL-TXT
100
AcDbLine
 10
14231.10778139857
 20
464.3130498733808
 30
0.0
 11
14230.92777537316
 21
464.6887975502225
 31
0.0
  0
LINE
  5
F37C
330
1F
100
AcDbEntity
  8
D-TTL-TXT
100
AcDbLine
 10
14230.92777537316
 20
464.6887975502225
 30
0.0
 11
14230.73397087257
 21
465.0511937868189
 31
0.0
  0
LINE
  5
F37D
330
1F
100
AcDbEntity
  8
D-TTL-TXT
100
AcDbLine
 10
14230.73397087257
 20
465.0511937868189
 30
0.0
 11
14230.52583145513
 21
465.40023858317
 31
0.0
  0
LINE
  5
F37E
330
1F
100
AcDbEntity
  8
D-TTL-TXT
100
AcDbLine
 10
14230.52583145513
 20
465.40023858317
 30
0.0
 11
14230.30291008588
 21
465.7359319390864
 31
0.0
  0
LINE
  5
F37F
330
1F
100
AcDbEntity
  8
D-TTL-TXT
100
AcDbLine
 10
14230.30291008588
 20
465.7359319390864
 30
0.0
 11
14230.06499814866
 21
466.0544591576763
 31
0.0
  0
LINE
  5
F380
330
1F
100
AcDbEntity
  8
D-TTL-TXT
100
AcDbLine
 10
14230.06499814866
 20
466.0544591576763
 30
0.0
 11
14229.81206584108
 21
466.3596349358315
 31
0.0
  0
LINE
  5
F381
330
1F
100
AcDbEntity
  8
D-TTL-TXT
100
AcDbLine
 10
14229.81206584108
 20
466.3596349358315
 30
0.0
 11
14229.54432177943
 21
466.6495519251086
 31
0.0
  0
LINE
  5
F382
330
1F
100
AcDbEntity
  8
D-TTL-TXT
100
AcDbLine
 10
14229.54432177943
 20
466.6495519251086
 30
0.0
 11
14229.26212359154
 21
466.9242101255076
 31
0.0
  0
LINE
  5
F383
330
1F
100
AcDbEntity
  8
D-TTL-TXT
100
AcDbLine
 10
14229.26212359154
 20
466.9242101255076
 30
0.0
 11
14228.96618653318
 21
467.1817021883907
 31
0.0
  0
LINE
  5
F384
330
1F
100
AcDbEntity
  8
D-TTL-TXT
100
AcDbLine
 10
14228.96618653318
 20
467.1817021883907
 30
0.0
 11
14228.65731526704
 21
467.4239354623908
 31
0.0
  0
LINE
  5
F385
330
1F
100
AcDbEntity
  8
D-TTL-TXT
100
AcDbLine
 10
14228.65731526704
 20
467.4239354623908
 30
0.0
 11
14228.33670188603
 21
467.647095250247
 31
0.0
  0
LINE
  5
F386
330
1F
100
AcDbEntity
  8
D-TTL-TXT
100
AcDbLine
 10
14228.33670188603
 20
467.647095250247
 30
0.0
 11
14228.00568749456
 21
467.8549962490408
 31
0.0
  0
LINE
  5
F387
330
1F
100
AcDbEntity
  8
D-TTL-TXT
100
AcDbLine
 10
14228.00568749456
 20
467.8549962490408
 30
0.0
 11
14227.66585161578
 21
468.0457311105031
 31
0.0
  0
LINE
  5
F388
330
1F
100
AcDbEntity
  8
D-TTL-TXT
100
AcDbLine
 10
14227.66585161578
 20
468.0457311105031
 30
0.0
 11
14227.318982389
 21
468.21929983427
 31
0.0
  0
LINE
  5
F389
330
1F
100
AcDbEntity
  8
D-TTL-TXT
100
AcDbLine
 10
14227.318982389
 20
468.21929983427
 30
0.0
 11
14226.96707656974
 21
468.375702420526
 31
0.0
  0
LINE
  5
F38A
330
1F
100
AcDbEntity
  8
D-TTL-TXT
100
AcDbLine
 10
14226.96707656974
 20
468.375702420526
 30
0.0
 11
14226.61225012297
 21
468.5130315208128
 31
0.0
  0
LINE
  5
F38B
330
1F
100
AcDbEntity
  8
D-TTL-TXT
100
AcDbLine
 10
14226.61225012297
 20
468.5130315208128
 30
0.0
 11
14226.25679782737
 21
468.6312871347763
 31
0.0
  0
LINE
  5
F38C
330
1F
100
AcDbEntity
  8
D-TTL-TXT
100
AcDbLine
 10
14226.25679782737
 20
468.6312871347763
 30
0.0
 11
14225.90307406652
 21
468.7342839600362
 31
0.0
  0
LINE
  5
F38D
330
1F
100
AcDbEntity
  8
D-TTL-TXT
100
AcDbLine
 10
14225.90307406652
 20
468.7342839600362
 30
0.0
 11
14225.5534928284
 21
468.8162999503401
 31
0.0
  0
LINE
  5
F38E
330
1F
100
AcDbEntity
  8
D-TTL-TXT
100
AcDbLine
 10
14225.5534928284
 20
468.8162999503401
 30
0.0
 11
14225.2105575081
 21
468.8811498033076
 31
0.0
  0
LINE
  5
F38F
330
1F
100
AcDbEntity
  8
D-TTL-TXT
100
AcDbLine
 10
14225.2105575081
 20
468.8811498033076
 30
0.0
 11
14224.87662248907
 21
468.9288335185847
 31
0.0
  0
LINE
  5
F390
330
1F
100
AcDbEntity
  8
D-TTL-TXT
100
AcDbLine
 10
14224.87662248907
 20
468.9288335185847
 30
0.0
 11
14224.55410175946
 21
468.9555363992597
 31
0.0
  0
LINE
  5
F391
330
1F
100
AcDbEntity
  8
D-TTL-TXT
100
AcDbLine
 10
14224.55410175946
 20
468.9555363992597
 30
0.0
 11
14224.24526029561
 21
468.9650731422443
 31
0.0
  0
LINE
  5
F392
330
1F
100
AcDbEntity
  8
D-TTL-TXT
100
AcDbLine
 10
14224.24526029561
 20
468.9650731422443
 30
0.0
 11
14223.93638902947
 21
468.9555363992597
 31
0.0
  0
LINE
  5
F393
330
1F
100
AcDbEntity
  8
D-TTL-TXT
100
AcDbLine
 10
14223.93638902947
 20
468.9555363992597
 30
0.0
 11
14223.61386829984
 21
468.9288335185847
 31
0.0
  0
LINE
  5
F394
330
1F
100
AcDbEntity
  8
D-TTL-TXT
100
AcDbLine
 10
14223.61386829984
 20
468.9288335185847
 30
0.0
 11
14223.27996308315
 21
468.8811498033076
 31
0.0
  0
LINE
  5
F395
330
1F
100
AcDbEntity
  8
D-TTL-TXT
100
AcDbLine
 10
14223.27996308315
 20
468.8811498033076
 30
0.0
 11
14222.93699796053
 21
468.8162999503401
 31
0.0
  0
LINE
  5
F396
330
1F
100
AcDbEntity
  8
D-TTL-TXT
100
AcDbLine
 10
14222.93699796053
 20
468.8162999503401
 30
0.0
 11
14222.58744652474
 21
468.7342839600362
 31
0.0
  0
LINE
  5
F397
330
1F
100
AcDbEntity
  8
D-TTL-TXT
100
AcDbLine
 10
14222.58744652474
 20
468.7342839600362
 30
0.0
 11
14222.23372276389
 21
468.6312871347763
 31
0.0
  0
LINE
  5
F398
330
1F
100
AcDbEntity
  8
D-TTL-TXT
100
AcDbLine
 10
14222.23372276389
 20
468.6312871347763
 30
0.0
 11
14221.8782704683
 21
468.5130315208128
 31
0.0
  0
LINE
  5
F399
330
1F
100
AcDbEntity
  8
D-TTL-TXT
100
AcDbLine
 10
14221.8782704683
 20
468.5130315208128
 30
0.0
 11
14221.52344402148
 21
468.375702420526
 31
0.0
  0
LINE
  5
F39A
330
1F
100
AcDbEntity
  8
D-TTL-TXT
100
AcDbLine
 10
14221.52344402148
 20
468.375702420526
 30
0.0
 11
14221.17150839993
 21
468.21929983427
 31
0.0
  0
LINE
  5
F39B
330
1F
100
AcDbEntity
  8
D-TTL-TXT
100
AcDbLine
 10
14221.17150839993
 20
468.21929983427
 30
0.0
 11
14220.82466897547
 21
468.0457311105031
 31
0.0
  0
LINE
  5
F39C
330
1F
100
AcDbEntity
  8
D-TTL-TXT
100
AcDbLine
 10
14220.82466897547
 20
468.0457311105031
 30
0.0
 11
14220.48480329435
 21
467.8549962490408
 31
0.0
  0
LINE
  5
F39D
330
1F
100
AcDbEntity
  8
D-TTL-TXT
100
AcDbLine
 10
14220.48480329435
 20
467.8549962490408
 30
0.0
 11
14220.1537889029
 21
467.647095250247
 31
0.0
  0
LINE
  5
F39E
330
1F
100
AcDbEntity
  8
D-TTL-TXT
100
AcDbLine
 10
14220.1537889029
 20
467.647095250247
 30
0.0
 11
14219.83317552189
 21
467.4239354623908
 31
0.0
  0
LINE
  5
F39F
330
1F
100
AcDbEntity
  8
D-TTL-TXT
100
AcDbLine
 10
14219.83317552189
 20
467.4239354623908
 30
0.0
 11
14219.52433405805
 21
467.1817021883907
 31
0.0
  0
LINE
  5
F3A0
330
1F
100
AcDbEntity
  8
D-TTL-TXT
100
AcDbLine
 10
14219.52433405805
 20
467.1817021883907
 30
0.0
 11
14219.22836719732
 21
466.9242101255076
 31
0.0
  0
LINE
  5
F3A1
330
1F
100
AcDbEntity
  8
D-TTL-TXT
100
AcDbLine
 10
14219.22836719732
 20
466.9242101255076
 30
0.0
 11
14218.94619881182
 21
466.6495519251086
 31
0.0
  0
LINE
  5
F3A2
330
1F
100
AcDbEntity
  8
D-TTL-TXT
100
AcDbLine
 10
14218.94619881182
 20
466.6495519251086
 30
0.0
 11
14218.67845475019
 21
466.3596349358315
 31
0.0
  0
LINE
  5
F3A3
330
1F
100
AcDbEntity
  8
D-TTL-TXT
100
AcDbLine
 10
14218.67845475019
 20
466.3596349358315
 30
0.0
 11
14218.42552244259
 21
466.0544591576763
 31
0.0
  0
LINE
  5
F3A4
330
1F
100
AcDbEntity
  8
D-TTL-TXT
100
AcDbLine
 10
14218.42552244259
 20
466.0544591576763
 30
0.0
 11
14218.18761050538
 21
465.7359319390864
 31
0.0
  0
LINE
  5
F3A5
330
1F
100
AcDbEntity
  8
D-TTL-TXT
100
AcDbLine
 10
14218.18761050538
 20
465.7359319390864
 30
0.0
 11
14217.9646891361
 21
465.40023858317
 31
0.0
  0
LINE
  5
F3A6
330
1F
100
AcDbEntity
  8
D-TTL-TXT
100
AcDbLine
 10
14217.9646891361
 20
465.40023858317
 30
0.0
 11
14217.75651991633
 21
465.0511937868189
 31
0.0
  0
LINE
  5
F3A7
330
1F
100
AcDbEntity
  8
D-TTL-TXT
100
AcDbLine
 10
14217.75651991633
 20
465.0511937868189
 30
0.0
 11
14217.56271541577
 21
464.6887975502225
 31
0.0
  0
LINE
  5
F3A8
330
1F
100
AcDbEntity
  8
D-TTL-TXT
100
AcDbLine
 10
14217.56271541577
 20
464.6887975502225
 30
0.0
 11
14217.38273919266
 21
464.3130498733808
 31
0.0
  0
LINE
  5
F3A9
330
1F
100
AcDbEntity
  8
D-TTL-TXT
100
AcDbLine
 10
14217.38273919266
 20
464.3130498733808
 30
0.0
 11
14217.21587599128
 21
463.9239507561044
 31
0.0
  0
LINE
  5
F3AA
330
1F
100
AcDbEntity
  8
D-TTL-TXT
100
AcDbLine
 10
14217.21587599128
 20
463.9239507561044
 30
0.0
 11
14217.06138075358
 21
463.5234075472156
 31
0.0
  0
LINE
  5
F3AB
330
1F
100
AcDbEntity
  8
D-TTL-TXT
100
AcDbLine
 10
14217.06138075358
 20
463.5234075472156
 30
0.0
 11
14216.91838921219
 21
463.1095128980814
 31
0.0
  0
LINE
  5
F3AC
330
1F
100
AcDbEntity
  8
D-TTL-TXT
100
AcDbLine
 10
14216.91838921219
 20
463.1095128980814
 30
0.0
 11
14216.78609670445
 21
462.6841741571454
 31
0.0
  0
LINE
  5
F3AD
330
1F
100
AcDbEntity
  8
D-TTL-TXT
100
AcDbLine
 10
14216.78609670445
 20
462.6841741571454
 30
0.0
 11
14216.66354955599
 21
462.2492986732297
 31
0.0
  0
LINE
  5
F3AE
330
1F
100
AcDbEntity
  8
D-TTL-TXT
100
AcDbLine
 10
14216.66354955599
 20
462.2492986732297
 30
0.0
 11
14216.54991330189
 21
461.8029790977016
 31
0.0
  0
LINE
  5
F3AF
330
1F
100
AcDbEntity
  8
D-TTL-TXT
100
AcDbLine
 10
14216.54991330189
 20
461.8029790977016
 30
0.0
 11
14216.4444130817
 21
461.3471227790044
 31
0.0
  0
LINE
  5
F3B0
330
1F
100
AcDbEntity
  8
D-TTL-TXT
100
AcDbLine
 10
14216.4444130817
 20
461.3471227790044
 30
0.0
 11
14216.3462442327
 21
460.8817297171481
 31
0.0
  0
LINE
  5
F3B1
330
1F
100
AcDbEntity
  8
D-TTL-TXT
100
AcDbLine
 10
14216.3462442327
 20
460.8817297171481
 30
0.0
 11
14216.2547809062
 21
460.40870726094
 31
0.0
  0
LINE
  5
F3B2
330
1F
100
AcDbEntity
  8
D-TTL-TXT
100
AcDbLine
 10
14216.2547809062
 20
460.40870726094
 30
0.0
 11
14216.16945685808
 21
459.9261480617472
 31
0.0
  0
LINE
  5
F3B3
330
1F
100
AcDbEntity
  8
D-TTL-TXT
100
AcDbLine
 10
14215.36834063801
 20
469.9549870726671
 30
0.0
 11
14233.12217995324
 21
469.9549870726671
 31
0.0
  0
LINE
  5
F3B4
330
1F
100
AcDbEntity
  8
D-TTL-TXT
100
AcDbLine
 10
14212.14870637571
 20
467.454453040152
 30
0.0
 11
14220.49922761824
 21
467.454453040152
 31
0.0
  0
LINE
  5
F3B5
330
1F
100
AcDbEntity
  8
D-TTL-TXT
100
AcDbLine
 10
14210.0121183004
 20
464.9558263562696
 30
0.0
 11
14218.40942918868
 21
464.9558263562696
 31
0.0
  0
LINE
  5
F3B6
330
1F
100
AcDbEntity
  8
D-TTL-TXT
100
AcDbLine
 10
14208.51106474372
 20
462.4552923235751
 30
0.0
 11
14217.16932476418
 21
462.4552923235751
 31
0.0
  0
LINE
  5
F3B7
330
1F
100
AcDbEntity
  8
D-TTL-TXT
100
AcDbLine
 10
14207.47400353965
 20
459.9547582908756
 30
0.0
 11
14216.36692704426
 21
459.9547582908756
 31
0.0
  0
LINE
  5
F3B8
330
1F
100
AcDbEntity
  8
D-TTL-TXT
100
AcDbLine
 10
14227.99129297302
 20
467.454453040152
 30
0.0
 11
14236.34184401788
 21
467.454453040152
 31
0.0
  0
LINE
  5
F3B9
330
1F
100
AcDbEntity
  8
D-TTL-TXT
100
AcDbLine
 10
14196.48195347865
 20
501.4243318507554
 30
0.0
 11
14198.62614114606
 21
502.0861818197929
 31
0.0
  0
LINE
  5
F3BA
330
1F
100
AcDbEntity
  8
D-TTL-TXT
100
AcDbLine
 10
14198.62614114606
 20
502.0861818197929
 30
0.0
 11
14200.81726747074
 21
502.8243257334154
 31
0.0
  0
LINE
  5
F3BB
330
1F
100
AcDbEntity
  8
D-TTL-TXT
100
AcDbLine
 10
14200.81726747074
 20
502.8243257334154
 30
0.0
 11
14203.05268004606
 21
503.6349488941778
 31
0.0
  0
LINE
  5
F3BC
330
1F
100
AcDbEntity
  8
D-TTL-TXT
100
AcDbLine
 10
14203.05268004606
 20
503.6349488941778
 30
0.0
 11
14205.32966686067
 21
504.5180513022544
 31
0.0
  0
LINE
  5
F3BD
330
1F
100
AcDbEntity
  8
D-TTL-TXT
100
AcDbLine
 10
14205.32966686067
 20
504.5180513022544
 30
0.0
 11
14207.64545629867
 21
505.4755403064675
 31
0.0
  0
LINE
  5
F3BE
330
1F
100
AcDbEntity
  8
D-TTL-TXT
100
AcDbLine
 10
14207.64545629867
 20
505.4755403064675
 30
0.0
 11
14209.99718733703
 21
506.5016938605549
 31
0.0
  0
LINE
  5
F3BF
330
1F
100
AcDbEntity
  8
D-TTL-TXT
100
AcDbLine
 10
14209.99718733703
 20
506.5016938605549
 30
0.0
 11
14212.38205855763
 21
507.5984193135082
 31
0.0
  0
LINE
  5
F3C0
330
1F
100
AcDbEntity
  8
D-TTL-TXT
100
AcDbLine
 10
14212.38205855763
 20
507.5984193135082
 30
0.0
 11
14214.79708972816
 21
508.7638093165151
 31
0.0
  0
LINE
  5
F3C1
330
1F
100
AcDbEntity
  8
D-TTL-TXT
100
AcDbLine
 10
14214.79708972816
 20
508.7638093165151
 30
0.0
 11
14217.23941982575
 21
509.9959565209428
 31
0.0
  0
LINE
  5
F3C2
330
1F
100
AcDbEntity
  8
D-TTL-TXT
100
AcDbLine
 10
14217.23941982575
 20
509.9959565209428
 30
0.0
 11
14219.7060090135
 21
511.2948609269708
 31
0.0
  0
LINE
  5
F3C3
330
1F
100
AcDbEntity
  8
D-TTL-TXT
100
AcDbLine
 10
14219.7060090135
 20
511.2948609269708
 30
0.0
 11
14222.19387705921
 21
512.656707837159
 31
0.0
  0
LINE
  5
F3C4
330
1F
100
AcDbEntity
  8
D-TTL-TXT
100
AcDbLine
 10
14222.19387705921
 20
512.656707837159
 30
0.0
 11
14224.70001392837
 21
514.079589903049
 31
0.0
  0
LINE
  5
F3C5
330
1F
100
AcDbEntity
  8
D-TTL-TXT
100
AcDbLine
 10
14224.70001392837
 20
514.079589903049
 30
0.0
 11
14227.22132017949
 21
515.5635071244614
 31
0.0
  0
LINE
  5
F3C6
330
1F
100
AcDbEntity
  8
D-TTL-TXT
100
AcDbLine
 10
14227.22132017949
 20
515.5635071244614
 30
0.0
 11
14229.75475597571
 21
517.1065521529428
 31
0.0
  0
LINE
  5
F3C7
330
1F
100
AcDbEntity
  8
D-TTL-TXT
100
AcDbLine
 10
14229.75475597571
 20
517.1065521529428
 30
0.0
 11
14232.29722187548
 21
518.7049102912326
 31
0.0
  0
LINE
  5
F3C8
330
1F
100
AcDbEntity
  8
D-TTL-TXT
100
AcDbLine
 10
14232.29722187548
 20
518.7049102912326
 30
0.0
 11
14234.84561843736
 21
520.360488888143
 31
0.0
  0
LINE
  5
F3C9
330
1F
100
AcDbEntity
  8
D-TTL-TXT
100
AcDbLine
 10
14234.84561843736
 20
520.360488888143
 30
0.0
 11
14237.39687602217
 21
522.0675658974117
 31
0.0
  0
LINE
  5
F3CA
330
1F
100
AcDbEntity
  8
D-TTL-TXT
100
AcDbLine
 10
14228.4433941991
 20
642.6158129828011
 30
0.0
 11
14228.4433941991
 21
605.5655661609489
 31
0.0
  0
LINE
  5
F3CB
330
1F
100
AcDbEntity
  8
D-TTL-TXT
100
AcDbLine
 10
14195.19282423437
 20
586.5493004820746
 30
0.0
 11
14197.5445552728
 21
587.575454036157
 31
0.0
  0
LINE
  5
F3CC
330
1F
100
AcDbEntity
  8
D-TTL-TXT
100
AcDbLine
 10
14197.5445552728
 20
587.575454036157
 30
0.0
 11
14199.92939669104
 21
588.674086837743
 31
0.0
  0
LINE
  5
F3CD
330
1F
100
AcDbEntity
  8
D-TTL-TXT
100
AcDbLine
 10
14199.92939669104
 20
588.674086837743
 30
0.0
 11
14202.34445766389
 21
589.8375694921171
 31
0.0
  0
LINE
  5
F3CE
330
1F
100
AcDbEntity
  8
D-TTL-TXT
100
AcDbLine
 10
14202.34445766389
 20
589.8375694921171
 30
0.0
 11
14204.78672815679
 21
591.0697166965449
 31
0.0
  0
LINE
  5
F3CF
330
1F
100
AcDbEntity
  8
D-TTL-TXT
100
AcDbLine
 10
14204.78672815679
 20
591.0697166965449
 30
0.0
 11
14207.25331734458
 21
592.3686211025779
 31
0.0
  0
LINE
  5
F3D0
330
1F
100
AcDbEntity
  8
D-TTL-TXT
100
AcDbLine
 10
14207.25331734458
 20
592.3686211025779
 30
0.0
 11
14209.7411853903
 21
593.7304680127611
 31
0.0
  0
LINE
  5
F3D1
330
1F
100
AcDbEntity
  8
D-TTL-TXT
100
AcDbLine
 10
14209.7411853903
 20
593.7304680127611
 30
0.0
 11
14212.24729245715
 21
595.1533500786511
 31
0.0
  0
LINE
  5
F3D2
330
1F
100
AcDbEntity
  8
D-TTL-TXT
100
AcDbLine
 10
14212.24729245715
 20
595.1533500786511
 30
0.0
 11
14214.76859870825
 21
596.6372673000635
 31
0.0
  0
LINE
  5
F3D3
330
1F
100
AcDbEntity
  8
D-TTL-TXT
100
AcDbLine
 10
14214.76859870825
 20
596.6372673000635
 30
0.0
 11
14217.3020047021
 21
598.1803123285499
 31
0.0
  0
LINE
  5
F3D4
330
1F
100
AcDbEntity
  8
D-TTL-TXT
100
AcDbLine
 10
14217.3020047021
 20
598.1803123285499
 30
0.0
 11
14219.84447060193
 21
599.7786704670191
 31
0.0
  0
LINE
  5
F3D5
330
1F
100
AcDbEntity
  8
D-TTL-TXT
100
AcDbLine
 10
14219.84447060193
 20
599.7786704670191
 30
0.0
 11
14222.39283736152
 21
601.4342490635656
 31
0.0
  0
LINE
  5
F3D6
330
1F
100
AcDbEntity
  8
D-TTL-TXT
100
AcDbLine
 10
14222.39283736152
 20
601.4342490635656
 30
0.0
 11
14224.94406514397
 21
603.1413260728343
 31
0.0
  0
LINE
  5
F3D7
330
1F
100
AcDbEntity
  8
D-TTL-TXT
100
AcDbLine
 10
14224.94406514397
 20
603.1413260728343
 30
0.0
 11
14227.49502470557
 21
604.8979941461923
 31
0.0
  0
LINE
  5
F3D8
330
1F
100
AcDbEntity
  8
D-TTL-TXT
100
AcDbLine
 10
14227.49502470557
 20
604.8979941461923
 30
0.0
 11
14228.44342400142
 21
605.5655661609489
 31
0.0
  0
LINE
  5
F3D9
330
1F
100
AcDbEntity
  8
D-TTL-TXT
100
AcDbLine
 10
14200.58457093986
 20
588.9830773131689
 30
0.0
 11
14228.4433941991
 21
612.777251269581
 31
0.0
  0
LINE
  5
F3DA
330
1F
100
AcDbEntity
  8
D-TTL-TXT
100
AcDbLine
 10
14210.46693153781
 20
594.1367332675484
 30
0.0
 11
14228.4433941991
 21
609.4889822595335
 31
0.0
  0
LINE
  5
F3DB
330
1F
100
AcDbEntity
  8
D-TTL-TXT
100
AcDbLine
 10
14224.53273349448
 20
602.8628531753541
 30
0.0
 11
14228.4433941991
 21
606.2026205979393
 31
0.0
  0
LINE
  5
F3DC
330
1F
100
AcDbEntity
  8
D-TTL-TXT
100
AcDbLine
 10
14236.94268863354
 20
605.3195181898627
 30
0.0
 11
14234.39175887426
 21
603.5628501165047
 31
0.0
  0
LINE
  5
F3DD
330
1F
100
AcDbEntity
  8
D-TTL-TXT
100
AcDbLine
 10
14234.39175887426
 20
603.5628501166841
 30
0.0
 11
14233.44335957841
 21
602.8952781017481
 31
0.0
  0
LINE
  5
F3DE
330
1F
100
AcDbEntity
  8
D-TTL-TXT
100
AcDbLine
 10
14233.44338938074
 20
565.8450312798959
 30
0.0
 11
14233.44338938074
 21
602.8952781017481
 31
0.0
  0
LINE
  5
F3DF
330
1F
100
AcDbEntity
  8
D-TTL-TXT
100
AcDbLine
 10
14237.35405008534
 20
605.5979910875223
 30
0.0
 11
14233.44338938074
 21
602.2582236647576
 31
0.0
  0
LINE
  5
F3E0
330
1F
100
AcDbEntity
  8
D-TTL-TXT
100
AcDbLine
 10
14207.06338714593
 20
458.8904577645007
 30
0.0
 11
14206.93031977778
 21
458.2591253734038
 31
0.0
  0
LINE
  5
F3E1
330
1F
100
AcDbEntity
  8
D-TTL-TXT
100
AcDbLine
 10
14206.93031977778
 20
458.2591253734038
 30
0.0
 11
14206.812183373
 21
457.6220709362289
 31
0.0
  0
LINE
  5
F3E2
330
1F
100
AcDbEntity
  8
D-TTL-TXT
100
AcDbLine
 10
14206.812183373
 20
457.6220709362289
 30
0.0
 11
14206.70966338504
 21
456.9812018021523
 31
0.0
  0
LINE
  5
F3E3
330
1F
100
AcDbEntity
  8
D-TTL-TXT
100
AcDbLine
 10
14206.70966338504
 20
456.9812018021523
 30
0.0
 11
14206.62347506953
 21
456.3346106219978
 31
0.0
  0
LINE
  5
F3E4
330
1F
100
AcDbEntity
  8
D-TTL-TXT
100
AcDbLine
 10
14206.62347506953
 20
456.3346106219978
 30
0.0
 11
14206.55463170555
 21
455.6861120933899
 31
0.0
  0
LINE
  5
F3E5
330
1F
100
AcDbEntity
  8
D-TTL-TXT
100
AcDbLine
 10
14206.55463170555
 20
455.6861120933899
 30
0.0
 11
14206.50405716493
 21
455.0357062161492
 31
0.0
  0
LINE
  5
F3E6
330
1F
100
AcDbEntity
  8
D-TTL-TXT
100
AcDbLine
 10
14206.50405716493
 20
455.0357062161492
 30
0.0
 11
14206.47288393604
 21
454.3833929900913
 31
0.0
  0
LINE
  5
F3E7
330
1F
100
AcDbEntity
  8
D-TTL-TXT
100
AcDbLine
 10
14206.47288393604
 20
454.3833929900913
 30
0.0
 11
14206.46224450702
 21
453.729172415585
 31
0.0
  0
LINE
  5
F3E8
330
1F
100
AcDbEntity
  8
D-TTL-TXT
100
AcDbLine
 10
14206.46224450702
 20
453.729172415585
 30
0.0
 11
14206.47288393604
 21
453.0749518410787
 31
0.0
  0
LINE
  5
F3E9
330
1F
100
AcDbEntity
  8
D-TTL-TXT
100
AcDbLine
 10
14206.47288393604
 20
453.0749518410787
 30
0.0
 11
14206.50405716493
 21
452.4226386152052
 31
0.0
  0
LINE
  5
F3EA
330
1F
100
AcDbEntity
  8
D-TTL-TXT
100
AcDbLine
 10
14206.50405716493
 20
452.4226386152052
 30
0.0
 11
14206.55463170555
 21
451.7722327379645
 31
0.0
  0
LINE
  5
F3EB
330
1F
100
AcDbEntity
  8
D-TTL-TXT
100
AcDbLine
 10
14206.55463170555
 20
451.7722327379645
 30
0.0
 11
14206.62350487186
 21
451.1237342093566
 31
0.0
  0
LINE
  5
F3EC
330
1F
100
AcDbEntity
  8
D-TTL-TXT
100
AcDbLine
 10
14206.62350487186
 20
451.1237342093566
 30
0.0
 11
14206.70966338504
 21
450.4771430292021
 31
0.0
  0
LINE
  5
F3ED
330
1F
100
AcDbEntity
  8
D-TTL-TXT
100
AcDbLine
 10
14206.70966338504
 20
450.4771430292021
 30
0.0
 11
14206.812183373
 21
449.8362738949411
 31
0.0
  0
LINE
  5
F3EE
330
1F
100
AcDbEntity
  8
D-TTL-TXT
100
AcDbLine
 10
14206.812183373
 20
449.8362738949411
 30
0.0
 11
14206.93031977778
 21
449.1992194581301
 31
0.0
  0
LINE
  5
F3EF
330
1F
100
AcDbEntity
  8
D-TTL-TXT
100
AcDbLine
 10
14206.93031977778
 20
449.1992194581301
 30
0.0
 11
14207.06341694826
 21
448.5678870668537
 31
0.0
  0
LINE
  5
F3F0
330
1F
100
AcDbEntity
  8
D-TTL-TXT
100
AcDbLine
 10
14207.06341694826
 20
448.5678870668537
 30
0.0
 11
14207.21096824488
 21
447.9422767216601
 31
0.0
  0
LINE
  5
F3F1
330
1F
100
AcDbEntity
  8
D-TTL-TXT
100
AcDbLine
 10
14207.21096824488
 20
447.9422767216601
 30
0.0
 11
14207.37276505152
 21
447.3242957708134
 31
0.0
  0
LINE
  5
F3F2
330
1F
100
AcDbEntity
  8
D-TTL-TXT
100
AcDbLine
 10
14207.37276505152
 20
447.3242957708134
 30
0.0
 11
14207.5486583565
 21
446.7139442143136
 31
0.0
  0
LINE
  5
F3F3
330
1F
100
AcDbEntity
  8
D-TTL-TXT
100
AcDbLine
 10
14207.5486583565
 20
446.7139442143136
 30
0.0
 11
14207.73873756676
 21
446.1131294009828
 31
0.0
  0
LINE
  5
F3F4
330
1F
100
AcDbEntity
  8
D-TTL-TXT
100
AcDbLine
 10
14207.73873756676
 20
446.1131294009828
 30
0.0
 11
14207.94333050791
 21
445.5199439821783
 31
0.0
  0
LINE
  5
F3F5
330
1F
100
AcDbEntity
  8
D-TTL-TXT
100
AcDbLine
 10
14232.87732407494
 20
453.729172415585
 30
0.0
 11
14232.87222787785
 21
454.2613226788671
 31
0.0
  0
LINE
  5
F3F6
330
1F
100
AcDbEntity
  8
D-TTL-TXT
100
AcDbLine
 10
14232.87222787785
 20
454.2613226788671
 30
0.0
 11
14232.85741612385
 21
454.7915655935114
 31
0.0
  0
LINE
  5
F3F7
330
1F
100
AcDbEntity
  8
D-TTL-TXT
100
AcDbLine
 10
14232.85741612385
 20
454.7915655935114
 30
0.0
 11
14232.83372327776
 21
455.3218085081607
 31
0.0
  0
LINE
  5
F3F8
330
1F
100
AcDbEntity
  8
D-TTL-TXT
100
AcDbLine
 10
14232.83372327776
 20
455.3218085081607
 30
0.0
 11
14232.80192420006
 21
455.8501440741722
 31
0.0
  0
LINE
  5
F3F9
330
1F
100
AcDbEntity
  8
D-TTL-TXT
100
AcDbLine
 10
14232.80192420006
 20
455.8501440741722
 30
0.0
 11
14232.76276394882
 21
456.3746649429231
 31
0.0
  0
LINE
  5
F3FA
330
1F
100
AcDbEntity
  8
D-TTL-TXT
100
AcDbLine
 10
14232.76276394882
 20
456.3746649429231
 30
0.0
 11
14232.71683857048
 21
456.8972784630362
 31
0.0
  0
LINE
  5
F3FB
330
1F
100
AcDbEntity
  8
D-TTL-TXT
100
AcDbLine
 10
14232.71683857048
 20
456.8972784630362
 30
0.0
 11
14232.66471430918
 21
457.4141699374352
 31
0.0
  0
LINE
  5
F3FC
330
1F
100
AcDbEntity
  8
D-TTL-TXT
100
AcDbLine
 10
14232.66471430918
 20
457.4141699374352
 30
0.0
 11
14232.60680839736
 21
457.9291540632014
 31
0.0
  0
LINE
  5
F3FD
330
1F
100
AcDbEntity
  8
D-TTL-TXT
100
AcDbLine
 10
14232.60680839736
 20
457.9291540632014
 30
0.0
 11
14232.54341885823
 21
458.4365087944363
 31
0.0
  0
LINE
  5
F3FE
330
1F
100
AcDbEntity
  8
D-TTL-TXT
100
AcDbLine
 10
14232.54341885823
 20
458.4365087944363
 30
0.0
 11
14232.47466490121
 21
458.9400488284057
 31
0.0
  0
LINE
  5
F3FF
330
1F
100
AcDbEntity
  8
D-TTL-TXT
100
AcDbLine
 10
14232.47466490121
 20
458.9400488284057
 30
0.0
 11
14232.4006061308
 21
459.4359594680281
 31
0.0
  0
LINE
  5
F400
330
1F
100
AcDbEntity
  8
D-TTL-TXT
100
AcDbLine
 10
14216.08991446043
 20
459.4359594680281
 30
0.0
 11
14216.01585569003
 21
458.9400488284057
 31
0.0
  0
LINE
  5
F401
330
1F
100
AcDbEntity
  8
D-TTL-TXT
100
AcDbLine
 10
14216.01585569003
 20
458.9400488284057
 30
0.0
 11
14215.94710173296
 21
458.4365087944363
 31
0.0
  0
LINE
  5
F402
330
1F
100
AcDbEntity
  8
D-TTL-TXT
100
AcDbLine
 10
14215.94710173296
 20
458.4365087944363
 30
0.0
 11
14215.88371219387
 21
457.9291540632014
 31
0.0
  0
LINE
  5
F403
330
1F
100
AcDbEntity
  8
D-TTL-TXT
100
AcDbLine
 10
14215.88371219387
 20
457.9291540632014
 30
0.0
 11
14215.82577647976
 21
457.4141699374352
 31
0.0
  0
LINE
  5
F404
330
1F
100
AcDbEntity
  8
D-TTL-TXT
100
AcDbLine
 10
14215.82577647976
 20
457.4141699374352
 30
0.0
 11
14215.7736820207
 21
456.8972784630362
 31
0.0
  0
LINE
  5
F405
330
1F
100
AcDbEntity
  8
D-TTL-TXT
100
AcDbLine
 10
14215.7736820207
 20
456.8972784630362
 30
0.0
 11
14215.72775664237
 21
456.3746649429231
 31
0.0
  0
LINE
  5
F406
330
1F
100
AcDbEntity
  8
D-TTL-TXT
100
AcDbLine
 10
14215.72775664237
 20
456.3746649429231
 30
0.0
 11
14215.68859639115
 21
455.8501440741722
 31
0.0
  0
LINE
  5
F407
330
1F
100
AcDbEntity
  8
D-TTL-TXT
100
AcDbLine
 10
14215.68859639115
 20
455.8501440741722
 30
0.0
 11
14215.65679731349
 21
455.3218085081607
 31
0.0
  0
LINE
  5
F408
330
1F
100
AcDbEntity
  8
D-TTL-TXT
100
AcDbLine
 10
14215.65679731349
 20
455.3218085081607
 30
0.0
 11
14215.63310446741
 21
454.7915655935114
 31
0.0
  0
LINE
  5
F409
330
1F
100
AcDbEntity
  8
D-TTL-TXT
100
AcDbLine
 10
14215.63310446741
 20
454.7915655935114
 30
0.0
 11
14215.61829271333
 21
454.2613226788671
 31
0.0
  0
LINE
  5
F40A
330
1F
100
AcDbEntity
  8
D-TTL-TXT
100
AcDbLine
 10
14215.61829271333
 20
454.2613226788671
 30
0.0
 11
14215.61319651632
 21
453.729172415585
 31
0.0
  0
LINE
  5
F40B
330
1F
100
AcDbEntity
  8
D-TTL-TXT
100
AcDbLine
 10
14215.61319651632
 20
453.729172415585
 30
0.0
 11
14215.61829271333
 21
453.1970221524873
 31
0.0
  0
LINE
  5
F40C
330
1F
100
AcDbEntity
  8
D-TTL-TXT
100
AcDbLine
 10
14215.61829271333
 20
453.1970221524873
 30
0.0
 11
14215.63313426974
 21
452.666779237843
 31
0.0
  0
LINE
  5
F40D
330
1F
100
AcDbEntity
  8
D-TTL-TXT
100
AcDbLine
 10
14215.63313426974
 20
452.666779237843
 30
0.0
 11
14215.65679731349
 21
452.1365363231937
 31
0.0
  0
LINE
  5
F40E
330
1F
100
AcDbEntity
  8
D-TTL-TXT
100
AcDbLine
 10
14215.65679731349
 20
452.1365363231937
 30
0.0
 11
14215.68859639115
 21
451.6082007571822
 31
0.0
  0
LINE
  5
F40F
330
1F
100
AcDbEntity
  8
D-TTL-TXT
100
AcDbLine
 10
14215.68859639115
 20
451.6082007571822
 30
0.0
 11
14215.72775664237
 21
451.0836798884313
 31
0.0
  0
LINE
  5
F410
330
1F
100
AcDbEntity
  8
D-TTL-TXT
100
AcDbLine
 10
14215.72775664237
 20
451.0836798884313
 30
0.0
 11
14215.7736820207
 21
450.5610663683182
 31
0.0
  0
LINE
  5
F411
330
1F
100
AcDbEntity
  8
D-TTL-TXT
100
AcDbLine
 10
14215.7736820207
 20
450.5610663683182
 30
0.0
 11
14215.82580628208
 21
450.0441748939192
 31
0.0
  0
LINE
  5
F412
330
1F
100
AcDbEntity
  8
D-TTL-TXT
100
AcDbLine
 10
14215.82580628208
 20
450.0441748939192
 30
0.0
 11
14215.88371219387
 21
449.5291907683324
 31
0.0
  0
LINE
  5
F413
330
1F
100
AcDbEntity
  8
D-TTL-TXT
100
AcDbLine
 10
14215.88371219387
 20
449.5291907683324
 30
0.0
 11
14215.94710173296
 21
449.0218360369181
 31
0.0
  0
LINE
  5
F414
330
1F
100
AcDbEntity
  8
D-TTL-TXT
100
AcDbLine
 10
14215.94710173296
 20
449.0218360369181
 30
0.0
 11
14216.01585569003
 21
448.5182960029487
 31
0.0
  0
LINE
  5
F415
330
1F
100
AcDbEntity
  8
D-TTL-TXT
100
AcDbLine
 10
14216.01585569003
 20
448.5182960029487
 30
0.0
 11
14216.08994426275
 21
448.0223853633263
 31
0.0
  0
LINE
  5
F416
330
1F
100
AcDbEntity
  8
D-TTL-TXT
100
AcDbLine
 10
14216.08994426275
 20
448.0223853633263
 30
0.0
 11
14216.1694866604
 21
447.5321967696072
 31
0.0
  0
LINE
  5
F417
330
1F
100
AcDbEntity
  8
D-TTL-TXT
100
AcDbLine
 10
14216.1694866604
 20
447.5321967696072
 30
0.0
 11
14216.2547809062
 21
447.0496375704144
 31
0.0
  0
LINE
  5
F418
330
1F
100
AcDbEntity
  8
D-TTL-TXT
100
AcDbLine
 10
14216.2547809062
 20
447.0496375704144
 30
0.0
 11
14216.3462442327
 21
446.5766151142063
 31
0.0
  0
LINE
  5
F419
330
1F
100
AcDbEntity
  8
D-TTL-TXT
100
AcDbLine
 10
14216.3462442327
 20
446.5766151142063
 30
0.0
 11
14216.4444130817
 21
446.11122205235
 31
0.0
  0
LINE
  5
F41A
330
1F
100
AcDbEntity
  8
D-TTL-TXT
100
AcDbLine
 10
14216.4444130817
 20
446.11122205235
 30
0.0
 11
14216.54994310422
 21
445.6553657336528
 31
0.0
  0
LINE
  5
F41B
330
1F
100
AcDbEntity
  8
D-TTL-TXT
100
AcDbLine
 10
14231.94057748704
 20
445.6553657336528
 30
0.0
 11
14232.04610750956
 21
446.11122205235
 31
0.0
  0
LINE
  5
F41C
330
1F
100
AcDbEntity
  8
D-TTL-TXT
100
AcDbLine
 10
14232.04610750956
 20
446.11122205235
 30
0.0
 11
14232.14427635848
 21
446.5766151142063
 31
0.0
  0
LINE
  5
F41D
330
1F
100
AcDbEntity
  8
D-TTL-TXT
100
AcDbLine
 10
14232.14427635848
 20
446.5766151142063
 30
0.0
 11
14232.23573968502
 21
447.0496375704144
 31
0.0
  0
LINE
  5
F41E
330
1F
100
AcDbEntity
  8
D-TTL-TXT
100
AcDbLine
 10
14232.23573968502
 20
447.0496375704144
 30
0.0
 11
14232.32103393085
 21
447.5321967696072
 31
0.0
  0
LINE
  5
F41F
330
1F
100
AcDbEntity
  8
D-TTL-TXT
100
AcDbLine
 10
14232.32103393085
 20
447.5321967696072
 30
0.0
 11
14232.40057632848
 21
448.0223853633263
 31
0.0
  0
LINE
  5
F420
330
1F
100
AcDbEntity
  8
D-TTL-TXT
100
AcDbLine
 10
14232.40057632848
 20
448.0223853633263
 30
0.0
 11
14232.47466490121
 21
448.5182960029487
 31
0.0
  0
LINE
  5
F421
330
1F
100
AcDbEntity
  8
D-TTL-TXT
100
AcDbLine
 10
14232.47466490121
 20
448.5182960029487
 30
0.0
 11
14232.5433890559
 21
449.0218360369181
 31
0.0
  0
LINE
  5
F422
330
1F
100
AcDbEntity
  8
D-TTL-TXT
100
AcDbLine
 10
14232.5433890559
 20
449.0218360369181
 30
0.0
 11
14232.60680839736
 21
449.5291907683324
 31
0.0
  0
LINE
  5
F423
330
1F
100
AcDbEntity
  8
D-TTL-TXT
100
AcDbLine
 10
14232.60680839736
 20
449.5291907683324
 30
0.0
 11
14232.66471430918
 21
450.0422675452864
 31
0.0
  0
LINE
  5
F424
330
1F
100
AcDbEntity
  8
D-TTL-TXT
100
AcDbLine
 10
14232.66471430918
 20
450.0422675452864
 30
0.0
 11
14232.71683857048
 21
450.5610663683182
 31
0.0
  0
LINE
  5
F425
330
1F
100
AcDbEntity
  8
D-TTL-TXT
100
AcDbLine
 10
14232.71683857048
 20
450.5610663683182
 30
0.0
 11
14232.7627341465
 21
451.0836798884313
 31
0.0
  0
LINE
  5
F426
330
1F
100
AcDbEntity
  8
D-TTL-TXT
100
AcDbLine
 10
14232.7627341465
 20
451.0836798884313
 30
0.0
 11
14232.80192420006
 21
451.6082007571822
 31
0.0
  0
LINE
  5
F427
330
1F
100
AcDbEntity
  8
D-TTL-TXT
100
AcDbLine
 10
14232.80192420006
 20
451.6082007571822
 30
0.0
 11
14232.83369347544
 21
452.1365363231937
 31
0.0
  0
LINE
  5
F428
330
1F
100
AcDbEntity
  8
D-TTL-TXT
100
AcDbLine
 10
14232.83369347544
 20
452.1365363231937
 30
0.0
 11
14232.85738632153
 21
452.666779237843
 31
0.0
  0
LINE
  5
F429
330
1F
100
AcDbEntity
  8
D-TTL-TXT
100
AcDbLine
 10
14232.85738632153
 20
452.666779237843
 30
0.0
 11
14232.87219807553
 21
453.1970221524873
 31
0.0
  0
LINE
  5
F42A
330
1F
100
AcDbEntity
  8
D-TTL-TXT
100
AcDbLine
 10
14232.87219807553
 20
453.1970221524873
 30
0.0
 11
14232.87732407494
 21
453.729172415585
 31
0.0
  0
LINE
  5
F42B
330
1F
100
AcDbEntity
  8
D-TTL-TXT
100
AcDbLine
 10
14206.81787561654
 20
457.4542242583604
 30
0.0
 11
14215.8753675437
 21
457.4542242583604
 31
0.0
  0
LINE
  5
F42C
330
1F
100
AcDbEntity
  8
D-TTL-TXT
100
AcDbLine
 10
14206.50042128164
 20
454.9555975742987
 30
0.0
 11
14215.64121069907
 21
454.9555975742987
 31
0.0
  0
LINE
  5
F42D
330
1F
100
AcDbEntity
  8
D-TTL-TXT
100
AcDbLine
 10
14206.50343131616
 20
452.4550635415992
 30
0.0
 11
14215.64338626856
 21
452.4550635415992
 31
0.0
  0
LINE
  5
F42E
330
1F
100
AcDbEntity
  8
D-TTL-TXT
100
AcDbLine
 10
14206.82705473173
 20
449.9545295090841
 30
0.0
 11
14215.88213267078
 21
449.9545295090841
 31
0.0
  0
LINE
  5
F42F
330
1F
100
AcDbEntity
  8
D-TTL-TXT
100
AcDbLine
 10
14207.48985837502
 20
447.4559028252017
 30
0.0
 11
14216.37893738004
 21
447.4559028252017
 31
0.0
  0
LINE
  5
F430
330
1F
100
AcDbEntity
  8
D-TTL-TXT
100
AcDbLine
 10
14207.21096824488
 20
459.5160681096943
 30
0.0
 11
14207.06338714593
 21
458.8904577645007
 31
0.0
  0
LINE
  5
F431
330
1F
100
AcDbEntity
  8
D-TTL-TXT
100
AcDbLine
 10
14232.4006061308
 20
459.4359594680281
 30
0.0
 11
14232.32103393085
 21
459.9261480617472
 31
0.0
  0
LINE
  5
F432
330
1F
100
AcDbEntity
  8
D-TTL-TXT
100
AcDbLine
 10
14216.16945685808
 20
459.9261480617472
 30
0.0
 11
14216.08991446043
 21
459.4359594680281
 31
0.0
  0
LINE
  5
F433
330
1F
100
AcDbEntity
  8
D-TTL-TXT
100
AcDbLine
 10
14237.54073183093
 20
440.2575691568199
 30
0.0
 11
14237.93424169176
 21
440.7210548700434
 31
0.0
  0
LINE
  5
F434
330
1F
100
AcDbEntity
  8
D-TTL-TXT
100
AcDbLine
 10
14231.30245016647
 20
444.9553687925072
 30
0.0
 11
14239.95579280374
 21
444.9553687925072
 31
0.0
  0
LINE
  5
F435
330
1F
100
AcDbEntity
  8
D-TTL-TXT
100
AcDbLine
 10
14230.0518553246
 20
442.4548347598077
 30
0.0
 11
14238.44472566685
 21
442.4548347598077
 31
0.0
  0
LINE
  5
F436
330
1F
100
AcDbEntity
  8
D-TTL-TXT
100
AcDbLine
 10
14283.70867127058
 20
562.9954524510297
 30
0.0
 11
14230.5781345304
 21
517.6177215814434
 31
0.0
  0
LINE
  5
F437
330
1F
100
AcDbEntity
  8
D-TTL-TXT
100
AcDbLine
 10
14292.34776839796
 20
573.6632532475778
 30
0.0
 11
14218.69180619044
 21
510.7550812693419
 31
0.0
  0
LINE
  5
F438
330
1F
100
AcDbEntity
  8
D-TTL-TXT
100
AcDbLine
 10
14237.93430129641
 20
466.7372899614904
 30
0.0
 11
14237.54079143557
 21
467.2007756745345
 31
0.0
  0
LINE
  5
F439
330
1F
100
AcDbEntity
  8
D-TTL-TXT
100
AcDbLine
 10
14230.08112120489
 20
464.9558263562696
 30
0.0
 11
14238.47840229082
 21
464.9558263562696
 31
0.0
  0
LINE
  5
F43A
330
1F
100
AcDbEntity
  8
D-TTL-TXT
100
AcDbLine
 10
14231.32119582704
 20
462.4552923235751
 30
0.0
 11
14239.9794558475
 21
462.4552923235751
 31
0.0
  0
LINE
  5
F43B
330
1F
100
AcDbEntity
  8
D-TTL-TXT
100
AcDbLine
 10
14232.12362334932
 20
459.9547582908756
 30
0.0
 11
14241.0165468539
 21
459.9547582908756
 31
0.0
  0
LINE
  5
F43C
330
1F
100
AcDbEntity
  8
D-TTL-TXT
100
AcDbLine
 10
14237.39687602217
 20
522.0675658974117
 30
0.0
 11
14239.94783558377
 21
523.8242339705903
 31
0.0
  0
LINE
  5
F43D
330
1F
100
AcDbEntity
  8
D-TTL-TXT
100
AcDbLine
 10
14228.4433941991
 20
604.2170706911904
 30
0.0
 11
14272.66720895958
 21
641.9882952889747
 31
0.0
  0
LINE
  5
F43E
330
1F
100
AcDbEntity
  8
D-TTL-TXT
100
AcDbLine
 10
14294.87643582259
 20
628.4251392965573
 30
0.0
 11
14233.44338938074
 21
575.957793629932
 31
0.0
  0
LINE
  5
F43F
330
1F
100
AcDbEntity
  8
D-TTL-TXT
100
AcDbLine
 10
14291.0217736812
 20
628.421324599476
 30
0.0
 11
14233.44338938074
 21
579.2441552913417
 31
0.0
  0
LINE
  5
F440
330
1F
100
AcDbEntity
  8
D-TTL-TXT
100
AcDbLine
 10
14286.63019290503
 20
627.9578388862476
 30
0.0
 11
14233.44338938074
 21
582.5324243015686
 31
0.0
  0
LINE
  5
F441
330
1F
100
AcDbEntity
  8
D-TTL-TXT
100
AcDbLine
 10
14281.62343259628
 20
626.9698323042733
 30
0.0
 11
14233.44338938074
 21
585.8206933116162
 31
0.0
  0
LINE
  5
F442
330
1F
100
AcDbEntity
  8
D-TTL-TXT
100
AcDbLine
 10
14275.8834755595
 20
625.354308028652
 30
0.0
 11
14233.44338938074
 21
589.1070549730259
 31
0.0
  0
LINE
  5
F443
330
1F
100
AcDbEntity
  8
D-TTL-TXT
100
AcDbLine
 10
14269.2212558633
 20
622.9529561239517
 30
0.0
 11
14233.44338938074
 21
592.3953239830734
 31
0.0
  0
LINE
  5
F444
330
1F
100
AcDbEntity
  8
D-TTL-TXT
100
AcDbLine
 10
14261.30221263997
 20
619.4777669495281
 30
0.0
 11
14233.44338938074
 21
595.683592993116
 31
0.0
  0
LINE
  5
F445
330
1F
100
AcDbEntity
  8
D-TTL-TXT
100
AcDbLine
 10
14251.41982223969
 20
614.324110995328
 30
0.0
 11
14233.44338938074
 21
598.9718620033429
 31
0.0
  0
LINE
  5
F446
330
1F
100
AcDbEntity
  8
D-TTL-TXT
100
AcDbLine
 10
14239.49391641599
 20
607.0265951991314
 30
0.0
 11
14236.94268863354
 21
605.3195181898627
 31
0.0
  0
LINE
  5
F447
330
1F
100
AcDbEntity
  8
D-TTL-TXT
100
AcDbLine
 10
14298.07494023855
 20
581.8419641034027
 30
0.0
 11
14209.7174031373
 21
506.3777162006929
 31
0.0
  0
LINE
  5
F448
330
1F
100
AcDbEntity
  8
D-TTL-TXT
100
AcDbLine
 10
14302.19350194206
 20
588.6473839570681
 30
0.0
 11
14202.3516102212
 21
503.373642134029
 31
0.0
  0
LINE
  5
F449
330
1F
100
AcDbEntity
  8
D-TTL-TXT
100
AcDbLine
 10
14305.21366926263
 20
594.5143882930278
 30
0.0
 11
14196.08418188574
 21
501.3079835854296
 31
0.0
  0
LINE
  5
F44A
330
1F
100
AcDbEntity
  8
D-TTL-TXT
100
AcDbLine
 10
14303.67670390781
 20
626.0791005018448
 30
0.0
 11
14233.44338938074
 21
566.0929865996149
 31
0.0
  0
LINE
  5
F44B
330
1F
100
AcDbEntity
  8
D-TTL-TXT
100
AcDbLine
 10
14301.1727724105
 20
627.2273243671564
 30
0.0
 11
14233.44338938074
 21
569.3812556096575
 31
0.0
  0
LINE
  5
F44C
330
1F
100
AcDbEntity
  8
D-TTL-TXT
100
AcDbLine
 10
14298.24773410201
 20
628.0169666933216
 30
0.0
 11
14233.44338938074
 21
572.6695246198844
 31
0.0
  0
LINE
  5
F44D
330
1F
100
AcDbEntity
  8
D-TTL-TXT
100
AcDbLine
 10
14232.61518284987
 20
457.4542242583604
 30
0.0
 11
14241.67264497472
 21
457.4542242583604
 31
0.0
  0
LINE
  5
F44E
330
1F
100
AcDbEntity
  8
D-TTL-TXT
100
AcDbLine
 10
14232.84933969451
 20
454.9555975742987
 30
0.0
 11
14241.99009930959
 21
454.9555975742987
 31
0.0
  0
LINE
  5
F44F
330
1F
100
AcDbEntity
  8
D-TTL-TXT
100
AcDbLine
 10
14232.84713432269
 20
452.4550635415992
 30
0.0
 11
14241.98711907742
 21
452.4550635415992
 31
0.0
  0
LINE
  5
F450
330
1F
100
AcDbEntity
  8
D-TTL-TXT
100
AcDbLine
 10
14232.60838792041
 20
449.9545295090841
 30
0.0
 11
14241.66349566181
 21
449.9545295090841
 31
0.0
  0
LINE
  5
F451
330
1F
100
AcDbEntity
  8
D-TTL-TXT
100
AcDbLine
 10
14232.11158321119
 20
447.4559028252017
 30
0.0
 11
14241.00066221624
 21
447.4559028252017
 31
0.0
  0
LINE
  5
F452
330
1F
100
AcDbEntity
  8
D-TTL-TXT
100
AcDbLine
 10
14189.48114960123
 20
453.399201105567
 30
0.0
 11
14189.48114960123
 21
435.0028237259878
 31
0.0
  0
LINE
  5
F453
330
1F
100
AcDbEntity
  8
D-TTL-TXT
100
AcDbLine
 10
14190.89622345869
 20
472.4555211053666
 30
0.0
 11
14190.89622345869
 21
435.0028237259878
 31
0.0
  0
LINE
  5
F454
330
1F
100
AcDbEntity
  8
D-TTL-TXT
100
AcDbLine
 10
14190.1988789241
 20
658.2160172946896
 30
0.0
 11
14187.97112554559
 21
655.9958635082876
 31
0.0
  0
LINE
  5
F455
330
1F
100
AcDbEntity
  8
D-TTL-TXT
100
AcDbLine
 10
14187.97112554559
 20
655.9958635082876
 30
0.0
 11
14185.78816505716
 21
653.7623582816352
 31
0.0
  0
LINE
  5
F456
330
1F
100
AcDbEntity
  8
D-TTL-TXT
100
AcDbLine
 10
14184.74499437708
 20
499.0687563128788
 30
0.0
 11
14186.5547701883
 21
499.2671205686929
 31
0.0
  0
LINE
  5
F457
330
1F
100
AcDbEntity
  8
D-TTL-TXT
100
AcDbLine
 10
14186.5547701883
 20
499.2671205686929
 30
0.0
 11
14188.42620700391
 21
499.5436861177197
 31
0.0
  0
LINE
  5
F458
330
1F
100
AcDbEntity
  8
D-TTL-TXT
100
AcDbLine
 10
14188.42620700391
 20
499.5436861177197
 30
0.0
 11
14190.35703984747
 21
499.8965456111521
 31
0.0
  0
LINE
  5
F459
330
1F
100
AcDbEntity
  8
D-TTL-TXT
100
AcDbLine
 10
14184.02929161209
 20
582.4980920265418
 30
0.0
 11
14186.1734792795
 21
583.1599419954
 31
0.0
  0
LINE
  5
F45A
330
1F
100
AcDbEntity
  8
D-TTL-TXT
100
AcDbLine
 10
14186.1734792795
 20
583.1599419954
 30
0.0
 11
14188.36460560418
 21
583.8980859088381
 31
0.0
  0
LINE
  5
F45B
330
1F
100
AcDbEntity
  8
D-TTL-TXT
100
AcDbLine
 10
14188.36460560418
 20
583.8980859088381
 30
0.0
 11
14190.60001817943
 21
584.7087090697798
 31
0.0
  0
LINE
  5
F45C
330
1F
100
AcDbEntity
  8
D-TTL-TXT
100
AcDbLine
 10
14185.78816505716
 20
653.7623582816352
 30
0.0
 11
14183.65262006319
 21
651.5193163118238
 31
0.0
  0
LINE
  5
F45D
330
1F
100
AcDbEntity
  8
D-TTL-TXT
100
AcDbLine
 10
14183.39623068623
 20
456.8896490686893
 30
0.0
 11
14183.39623068623
 21
453.399201105567
 31
0.0
  0
LINE
  5
F45E
330
1F
100
AcDbEntity
  8
D-TTL-TXT
100
AcDbLine
 10
14185.89622827705
 20
456.8896490686893
 30
0.0
 11
14185.89622827705
 21
453.399201105567
 31
0.0
  0
LINE
  5
F45F
330
1F
100
AcDbEntity
  8
D-TTL-TXT
100
AcDbLine
 10
14188.39622586791
 20
456.8896490686893
 30
0.0
 11
14188.39622586791
 21
453.399201105567
 31
0.0
  0
LINE
  5
F460
330
1F
100
AcDbEntity
  8
D-TTL-TXT
100
AcDbLine
 10
14189.48114960123
 20
472.4555211053666
 30
0.0
 11
14189.48114960123
 21
456.8896490686893
 31
0.0
  0
LINE
  5
F461
330
1F
100
AcDbEntity
  8
D-TTL-TXT
100
AcDbLine
 10
14189.48114960123
 20
435.0028237259878
 30
0.0
 11
14196.74528679668
 21
435.0028237259878
 31
0.0
  0
LINE
  5
F462
330
1F
100
AcDbEntity
  8
D-TTL-TXT
100
AcDbLine
 10
14196.74528679668
 20
472.4555211053666
 30
0.0
 11
14189.48114960123
 21
472.4555211053666
 31
0.0
  0
LINE
  5
F463
330
1F
100
AcDbEntity
  8
D-TTL-TXT
100
AcDbLine
 10
14186.00330802033
 20
583.1065362342244
 30
0.0
 11
14228.4433941991
 21
619.3537892896711
 31
0.0
  0
LINE
  5
F464
330
1F
100
AcDbEntity
  8
D-TTL-TXT
100
AcDbLine
 10
14233.44338938074
 20
604.243773571686
 30
0.0
 11
14189.21957462026
 21
566.4725489737223
 31
0.0
  0
LINE
  5
F465
330
1F
100
AcDbEntity
  8
D-TTL-TXT
100
AcDbLine
 10
14190.35703984747
 20
499.8965456111521
 30
0.0
 11
14192.34488453312
 21
500.3295137466193
 31
0.0
  0
LINE
  5
F466
330
1F
100
AcDbEntity
  8
D-TTL-TXT
100
AcDbLine
 10
14190.60001817943
 20
584.7087090697798
 30
0.0
 11
14192.87703479637
 21
585.5918114778615
 31
0.0
  0
LINE
  5
F467
330
1F
100
AcDbEntity
  8
D-TTL-TXT
100
AcDbLine
 10
14307.39820927414
 20
599.6680442474073
 30
0.0
 11
14190.65241066168
 21
499.9575807668589
 31
0.0
  0
LINE
  5
F468
330
1F
100
AcDbEntity
  8
D-TTL-TXT
100
AcDbLine
 10
14308.90254108625
 20
604.2399588744204
 30
0.0
 11
14185.90084763698
 21
499.1870119270218
 31
0.0
  0
LINE
  5
F469
330
1F
100
AcDbEntity
  8
D-TTL-TXT
100
AcDbLine
 10
14282.17948432186
 20
709.512250912594
 30
0.0
 11
14280.56762573161
 21
709.5503978848864
 31
0.0
  0
LINE
  5
F46A
330
1F
100
AcDbEntity
  8
D-TTL-TXT
100
AcDbLine
 10
14293.32930787597
 20
705.6517773183441
 30
0.0
 11
14292.40755185605
 21
706.3861065345165
 31
0.0
  0
LINE
  5
F46B
330
1F
100
AcDbEntity
  8
D-TTL-TXT
100
AcDbLine
 10
14292.40755185605
 20
706.3861065345165
 30
0.0
 11
14291.40330300859
 21
707.0479565035541
 31
0.0
  0
LINE
  5
F46C
330
1F
100
AcDbEntity
  8
D-TTL-TXT
100
AcDbLine
 10
14291.40330300859
 20
707.0479565035541
 30
0.0
 11
14290.31781303111
 21
707.631605179374
 31
0.0
  0
LINE
  5
F46D
330
1F
100
AcDbEntity
  8
D-TTL-TXT
100
AcDbLine
 10
14290.31781303111
 20
707.631605179374
 30
0.0
 11
14289.1524230281
 21
708.1408672592417
 31
0.0
  0
LINE
  5
F46E
330
1F
100
AcDbEntity
  8
D-TTL-TXT
100
AcDbLine
 10
14289.1524230281
 20
708.1408672592417
 30
0.0
 11
14287.90850390644
 21
708.570020697259
 31
0.0
  0
LINE
  5
F46F
330
1F
100
AcDbEntity
  8
D-TTL-TXT
100
AcDbLine
 10
14287.90850390644
 20
708.570020697259
 30
0.0
 11
14286.58757558445
 21
708.9228801908757
 31
0.0
  0
LINE
  5
F470
330
1F
100
AcDbEntity
  8
D-TTL-TXT
100
AcDbLine
 10
14286.58757558445
 20
708.9228801908757
 30
0.0
 11
14285.1913069922
 21
709.1994457399025
 31
0.0
  0
LINE
  5
F471
330
1F
100
AcDbEntity
  8
D-TTL-TXT
100
AcDbLine
 10
14285.1913069922
 20
709.1994457399025
 30
0.0
 11
14283.72133725745
 21
709.3959026470838
 31
0.0
  0
LINE
  5
F472
330
1F
100
AcDbEntity
  8
D-TTL-TXT
100
AcDbLine
 10
14283.72133725745
 20
709.3959026470838
 30
0.0
 11
14282.17948432186
 21
709.512250912594
 31
0.0
  0
LINE
  5
F473
330
1F
100
AcDbEntity
  8
D-TTL-TXT
100
AcDbLine
 10
14280.56762573161
 20
709.5503978848864
 30
0.0
 11
14278.88772844006
 21
709.5103435639612
 31
0.0
  0
LINE
  5
F474
330
1F
100
AcDbEntity
  8
D-TTL-TXT
100
AcDbLine
 10
14278.88772844006
 20
709.5103435639612
 30
0.0
 11
14277.14181900508
 21
709.3920879498182
 31
0.0
  0
LINE
  5
F475
330
1F
100
AcDbEntity
  8
D-TTL-TXT
100
AcDbLine
 10
14277.14181900508
 20
709.3920879498182
 30
0.0
 11
14275.33204319385
 21
709.1937236940041
 31
0.0
  0
LINE
  5
F476
330
1F
100
AcDbEntity
  8
D-TTL-TXT
100
AcDbLine
 10
14275.33204319385
 20
709.1937236940041
 30
0.0
 11
14273.46060637825
 21
708.9171581451567
 31
0.0
  0
LINE
  5
F477
330
1F
100
AcDbEntity
  8
D-TTL-TXT
100
AcDbLine
 10
14273.46060637825
 20
708.9171581451567
 30
0.0
 11
14271.52977353468
 21
708.5642986515449
 31
0.0
  0
LINE
  5
F478
330
1F
100
AcDbEntity
  8
D-TTL-TXT
100
AcDbLine
 10
14271.52977353468
 20
708.5642986515449
 30
0.0
 11
14269.54189904663
 21
708.1313305162621
 31
0.0
  0
LINE
  5
F479
330
1F
100
AcDbEntity
  8
D-TTL-TXT
100
AcDbLine
 10
14269.54189904663
 20
708.1313305162621
 30
0.0
 11
14267.4994267046
 21
707.6220684363943
 31
0.0
  0
LINE
  5
F47A
330
1F
100
AcDbEntity
  8
D-TTL-TXT
100
AcDbLine
 10
14267.4994267046
 20
707.6220684363943
 30
0.0
 11
14265.40483010115
 21
707.0365124119416
 31
0.0
  0
LINE
  5
F47B
330
1F
100
AcDbEntity
  8
D-TTL-TXT
100
AcDbLine
 10
14265.40483010115
 20
707.0365124119416
 30
0.0
 11
14263.2606722361
 21
706.374662442904
 31
0.0
  0
LINE
  5
F47C
330
1F
100
AcDbEntity
  8
D-TTL-TXT
100
AcDbLine
 10
14263.2606722361
 20
706.374662442904
 30
0.0
 11
14261.06954591142
 21
705.636518529461
 31
0.0
  0
LINE
  5
F47D
330
1F
100
AcDbEntity
  8
D-TTL-TXT
100
AcDbLine
 10
14244.6473935564
 20
698.4648877417542
 30
0.0
 11
14242.18077456634
 21
697.1659833359056
 31
0.0
  0
LINE
  5
F47E
330
1F
100
AcDbEntity
  8
D-TTL-TXT
100
AcDbLine
 10
14242.18077456634
 20
697.1659833359056
 30
0.0
 11
14239.69290652062
 21
695.804136425538
 31
0.0
  0
LINE
  5
F47F
330
1F
100
AcDbEntity
  8
D-TTL-TXT
100
AcDbLine
 10
14296.17075067098
 20
701.9782238882908
 30
0.0
 11
14295.58906894843
 21
703.0043774423732
 31
0.0
  0
LINE
  5
F480
330
1F
100
AcDbEntity
  8
D-TTL-TXT
100
AcDbLine
 10
14295.58906894843
 20
703.0043774423732
 30
0.0
 11
14294.92104989881
 21
703.9580517493207
 31
0.0
  0
LINE
  5
F481
330
1F
100
AcDbEntity
  8
D-TTL-TXT
100
AcDbLine
 10
14294.92104989881
 20
703.9580517493207
 30
0.0
 11
14294.16749818472
 21
704.8411541575817
 31
0.0
  0
LINE
  5
F482
330
1F
100
AcDbEntity
  8
D-TTL-TXT
100
AcDbLine
 10
14258.83410353377
 20
704.8258953685192
 30
0.0
 11
14256.55714652149
 21
703.9427929604426
 31
0.0
  0
LINE
  5
F483
330
1F
100
AcDbEntity
  8
D-TTL-TXT
100
AcDbLine
 10
14256.55714652149
 20
703.9427929604426
 30
0.0
 11
14254.24135708352
 21
702.9853039564089
 31
0.0
  0
LINE
  5
F484
330
1F
100
AcDbEntity
  8
D-TTL-TXT
100
AcDbLine
 10
14254.24135708352
 20
702.9853039564089
 30
0.0
 11
14251.88959624276
 21
701.9591504021421
 31
0.0
  0
LINE
  5
F485
330
1F
100
AcDbEntity
  8
D-TTL-TXT
100
AcDbLine
 10
14251.88959624276
 20
701.9591504021421
 30
0.0
 11
14249.50475482452
 21
700.8624249491888
 31
0.0
  0
LINE
  5
F486
330
1F
100
AcDbEntity
  8
D-TTL-TXT
100
AcDbLine
 10
14249.50475482452
 20
700.8624249491888
 30
0.0
 11
14247.08969385166
 21
699.6970349461819
 31
0.0
  0
LINE
  5
F487
330
1F
100
AcDbEntity
  8
D-TTL-TXT
100
AcDbLine
 10
14247.08969385166
 20
699.6970349461819
 30
0.0
 11
14244.6473935564
 21
698.4648877417542
 31
0.0
  0
LINE
  5
F488
330
1F
100
AcDbEntity
  8
D-TTL-TXT
100
AcDbLine
 10
14296.6653798107
 20
700.8814984353375
 30
0.0
 11
14296.17075067098
 21
701.9782238882908
 31
0.0
  0
LINE
  5
F489
330
1F
100
AcDbEntity
  8
D-TTL-TXT
100
AcDbLine
 10
14197.12329945007
 20
664.7677597827326
 30
0.0
 11
14194.77773749229
 21
662.6048264549511
 31
0.0
  0
LINE
  5
F48A
330
1F
100
AcDbEntity
  8
D-TTL-TXT
100
AcDbLine
 10
14237.18679945381
 20
694.381254359648
 30
0.0
 11
14234.66549320266
 21
692.8973371382356
 31
0.0
  0
LINE
  5
F48B
330
1F
100
AcDbEntity
  8
D-TTL-TXT
100
AcDbLine
 10
14234.66549320266
 20
692.8973371382356
 30
0.0
 11
14232.13202760413
 21
691.3542921097541
 31
0.0
  0
LINE
  5
F48C
330
1F
100
AcDbEntity
  8
D-TTL-TXT
100
AcDbLine
 10
14232.13202760413
 20
691.3542921097541
 30
0.0
 11
14229.58956170434
 21
689.7559339714644
 31
0.0
  0
LINE
  5
F48D
330
1F
100
AcDbEntity
  8
D-TTL-TXT
100
AcDbLine
 10
14229.58956170434
 20
689.7559339714644
 30
0.0
 11
14227.04116514243
 21
688.1003553747334
 31
0.0
  0
LINE
  5
F48E
330
1F
100
AcDbEntity
  8
D-TTL-TXT
100
AcDbLine
 10
14227.04116514243
 20
688.1003553747334
 30
0.0
 11
14224.48993736002
 21
686.3932783654647
 31
0.0
  0
LINE
  5
F48F
330
1F
100
AcDbEntity
  8
D-TTL-TXT
100
AcDbLine
 10
14224.48993736002
 20
686.3932783654647
 30
0.0
 11
14221.93897779839
 21
684.6366102921067
 31
0.0
  0
LINE
  5
F490
330
1F
100
AcDbEntity
  8
D-TTL-TXT
100
AcDbLine
 10
14221.93897779839
 20
684.6366102921067
 30
0.0
 11
14219.39138589921
 21
682.8303511550232
 31
0.0
  0
LINE
  5
F491
330
1F
100
AcDbEntity
  8
D-TTL-TXT
100
AcDbLine
 10
14219.39138589921
 20
682.8303511550232
 30
0.0
 11
14216.85029090626
 21
680.9764083024831
 31
0.0
  0
LINE
  5
F492
330
1F
100
AcDbEntity
  8
D-TTL-TXT
100
AcDbLine
 10
14216.85029090626
 20
680.9764083024831
 30
0.0
 11
14214.31879226093
 21
679.080503780385
 31
0.0
  0
LINE
  5
F493
330
1F
100
AcDbEntity
  8
D-TTL-TXT
100
AcDbLine
 10
14214.31879226093
 20
679.080503780385
 30
0.0
 11
14211.79995960257
 21
677.140730240096
 31
0.0
  0
LINE
  5
F494
330
1F
100
AcDbEntity
  8
D-TTL-TXT
100
AcDbLine
 10
14211.79995960257
 20
677.140730240096
 30
0.0
 11
14209.29686257023
 21
675.1628097276989
 31
0.0
  0
LINE
  5
F495
330
1F
100
AcDbEntity
  8
D-TTL-TXT
100
AcDbLine
 10
14209.29686257023
 20
675.1628097276989
 30
0.0
 11
14206.81257080319
 21
673.1486495916372
 31
0.0
  0
LINE
  5
F496
330
1F
100
AcDbEntity
  8
D-TTL-TXT
100
AcDbLine
 10
14206.81257080319
 20
673.1486495916372
 30
0.0
 11
14204.35006453353
 21
671.0982498317364
 31
0.0
  0
LINE
  5
F497
330
1F
100
AcDbEntity
  8
D-TTL-TXT
100
AcDbLine
 10
14204.35006453353
 20
671.0982498317364
 30
0.0
 11
14201.91238359822
 21
669.0173324942588
 31
0.0
  0
LINE
  5
F498
330
1F
100
AcDbEntity
  8
D-TTL-TXT
100
AcDbLine
 10
14201.91238359822
 20
669.0173324942588
 30
0.0
 11
14199.50247842709
 21
666.9058975788357
 31
0.0
  0
LINE
  5
F499
330
1F
100
AcDbEntity
  8
D-TTL-TXT
100
AcDbLine
 10
14199.50247842709
 20
666.9058975788357
 30
0.0
 11
14197.12329945007
 21
664.7677597827326
 31
0.0
  0
LINE
  5
F49A
330
1F
100
AcDbEntity
  8
D-TTL-TXT
100
AcDbLine
 10
14239.69290652062
 20
695.804136425538
 30
0.0
 11
14237.18679945381
 21
694.381254359648
 31
0.0
  0
LINE
  5
F49B
330
1F
100
AcDbEntity
  8
D-TTL-TXT
100
AcDbLine
 10
14294.16749818472
 20
704.8411541575817
 30
0.0
 11
14293.32930787597
 21
705.6517773183441
 31
0.0
  0
LINE
  5
F49C
330
1F
100
AcDbEntity
  8
D-TTL-TXT
100
AcDbLine
 10
14261.06954591142
 20
705.636518529461
 30
0.0
 11
14258.83410353377
 21
704.8258953685192
 31
0.0
  0
TEXT
  5
F49D
330
1F
100
AcDbEntity
  8
D-TTL-TXT
100
AcDbText
 10
14420.0
 20
520.0
 30
0.0
 40
100.0
  1
昭和コンクリート工業株式会社
  7
ＭＳ ゴシック
100
AcDbText
  0
TEXT
  5
F4A0
330
1F
100
AcDbEntity
  8
D-TTL-TXT
100
AcDbText
 10
14544.99999499996
 20
1258.274111675127
 30
0.0
 40
100.0
  1
棚田擁壁
  7
ＭＳ ゴシック
 11
14544.99999499996
 21
1240.0
 31
0.0
100
AcDbText
 73
     1
  0
TEXT
  5
F4D4
330
1F
100
AcDbEntity
  8
D-TTL-TXT
100
AcDbText
 10
6590.710659898476
 20
10680.0
 30
0.0
 40
200.0
  1
棚田擁壁工標準断面図　H=3000
  7
ＭＳ ゴシック
 72
     1
 11
8410.0
 21
10680.0
 31
0.0
100
AcDbText
  0
LINE
  5
F4D5
330
1F
100
AcDbEntity
  8
D-MTR-FRAM
100
AcDbLine
 10
11620.0
 20
4840.0
 30
0.0
 11
15620.0
 21
4840.0
 31
0.0
  0
LINE
  5
F4D6
330
1F
100
AcDbEntity
  8
D-MTR-LINE
100
AcDbLine
 10
12620.0
 20
4840.0
 30
0.0
 11
12620.0
 21
3360.0
 31
0.0
  0
LINE
  5
F4D7
330
1F
100
AcDbEntity
  8
D-MTR-FRAM
100
AcDbLine
 10
11620.0
 20
4840.0
 30
0.0
 11
11620.0
 21
3360.0
 31
0.0
  0
TEXT
  5
F4D8
330
1F
100
AcDbEntity
  8
D-MTR-TXT
100
AcDbText
 10
11660.0
 20
4365.0
 30
0.0
 40
70.0
  1
壁体材（中詰部）
  7
ＭＳ ゴシック
 11
11660.0
 21
4400.0
 31
0.0
100
AcDbText
 73
     2
  0
TEXT
  5
F4D9
330
1F
100
AcDbEntity
  8
D-MTR
100
AcDbText
 10
11620.0
 20
4880.0
 30
0.0
 40
120.0
  1
材　料　表
  7
ＭＳ ゴシック
100
AcDbText
  0
LINE
  5
F4DA
330
1F
100
AcDbEntity
  8
D-MTR-LINE
100
AcDbLine
 10
14720.0
 20
4840.0
 30
0.0
 11
14720.0
 21
3360.0
 31
0.0
  0
LINE
  5
F4DB
330
1F
100
AcDbEntity
  8
D-MTR-LINE
100
AcDbLine
 10
14020.0
 20
4840.0
 30
0.0
 11
14020.0
 21
3360.0
 31
0.0
  0
TEXT
  5
F4DC
330
1F
100
AcDbEntity
  8
D-MTR-TXT
100
AcDbText
 10
14432.58883248731
 20
4365.0
 30
0.0
 40
70.0
  1
23.82
  7
ＭＳ ゴシック
 72
     2
 11
14660.0
 21
4400.0
 31
0.0
100
AcDbText
 73
     2
  0
LINE
  5
F4DD
330
1F
100
AcDbEntity
  8
D-MTR-LINE
100
AcDbLine
 10
11620.0
 20
4640.0
 30
0.0
 11
15620.0
 21
4640.0
 31
0.0
  0
TEXT
  5
F4DE
330
1F
100
AcDbEntity
  8
D-MTR-TXT
100
AcDbText
 10
11964.06091370558
 20
4702.63959390863
 30
0.0
 40
80.0
  1
名　称
  7
ＭＳ ゴシック
 72
     4
 11
12120.0
 21
4740.0
 31
0.0
100
AcDbText
  0
TEXT
  5
F4DF
330
1F
100
AcDbEntity
  8
D-MTR-TXT
100
AcDbText
 10
13164.06091370558
 20
4703.045685279188
 30
0.0
 40
80.0
  1
規　格
  7
ＭＳ ゴシック
 72
     4
 11
13320.0
 21
4740.0
 31
0.0
100
AcDbText
  0
TEXT
  5
F4E0
330
1F
100
AcDbEntity
  8
D-MTR-TXT
100
AcDbText
 10
14364.06091370558
 20
4703.045685279188
 30
0.0
 40
80.0
  1
数　量
  7
ＭＳ ゴシック
 72
     4
 11
14520.0
 21
4740.0
 31
0.0
100
AcDbText
  0
LINE
  5
F4E1
330
1F
100
AcDbEntity
  8
D-MTR-LINE
100
AcDbLine
 10
11620.0
 20
4320.0
 30
0.0
 11
12620.0
 21
4320.0
 31
0.0
  0
LINE
  5
F4E2
330
1F
100
AcDbEntity
  8
D-MTR-LINE
100
AcDbLine
 10
14320.0
 20
4320.0
 30
0.0
 11
15620.0
 21
4320.0
 31
0.0
  0
TEXT
  5
F4E3
330
1F
100
AcDbEntity
  8
D-MTR-TXT
100
AcDbText
 10
11660.0
 20
4045.0
 30
0.0
 40
70.0
  1
基礎砕石
  7
ＭＳ ゴシック
 11
11660.0
 21
4080.0
 31
0.0
100
AcDbText
 73
     2
  0
TEXT
  5
F4E4
330
1F
100
AcDbEntity
  8
D-MTR-TXT
100
AcDbText
 10
14124.51776649746
 20
4045.0
 30
0.0
 40
70.0
  1
ｍ
  7
ＭＳ ゴシック
 72
     1
 11
14170.0
 21
4080.0
 31
0.0
100
AcDbText
 73
     2
  0
TEXT
  5
F4E5
330
1F
100
AcDbEntity
  8
D-MTR-TXT
100
AcDbText
 10
14220.0
 20
4080.0
 30
0.0
 40
35.0
  1
3
  7
ＭＳ ゴシック
100
AcDbText
  0
TEXT
  5
F4E6
330
1F
100
AcDbEntity
  8
D-MTR-TXT
100
AcDbText
 10
14478.07106598984
 20
4045.0
 30
0.0
 40
70.0
  1
4.35
  7
ＭＳ ゴシック
 72
     2
 11
14660.0
 21
4080.0
 31
0.0
100
AcDbText
 73
     2
  0
LINE
  5
F4E7
330
1F
100
AcDbEntity
  8
D-MTR-LINE
100
AcDbLine
 10
11620.0
 20
4000.0
 30
0.0
 11
15620.0
 21
4000.0
 31
0.0
  0
LINE
  5
F4E8
330
1F
100
AcDbEntity
  8
D-MTR-LINE
100
AcDbLine
 10
14320.0
 20
4840.0
 30
0.0
 11
14320.0
 21
3360.0
 31
0.0
  0
TEXT
  5
F4E9
330
1F
100
AcDbEntity
  8
D-MTR-TXT
100
AcDbText
 10
14066.04060913705
 20
4702.23350253807
 30
0.0
 40
80.0
  1
単位
  7
ＭＳ ゴシック
 72
     4
 11
14170.0
 21
4740.0
 31
0.0
100
AcDbText
  0
TEXT
  5
F4EA
330
1F
100
AcDbEntity
  8
D-MTR
  6
Continuous
100
AcDbText
 10
15100.20304568529
 20
4870.0
 30
0.0
 40
79.9999999999999
  1
10ｍ当たり
  7
ＭＳ ゴシック
 72
     2
 11
15620.0
 21
4870.0
 31
0.0
100
AcDbText
  0
LINE
  5
F4F0
330
1F
100
AcDbEntity
  8
D-MTR-LINE
100
AcDbLine
 10
11620.0
 20
3840.0
 30
0.0
 11
15620.0
 21
3840.0
 31
0.0
  0
TEXT
  5
F4F1
330
1F
100
AcDbEntity
  8
D-MTR-TXT
100
AcDbText
 10
11660.0
 20
3885.0
 30
0.0
 40
70.0
  1
排水管
  7
ＭＳ ゴシック
 11
11660.0
 21
3920.0
 31
0.0
100
AcDbText
 73
     2
  0
TEXT
  5
F4F2
330
1F
100
AcDbEntity
  8
D-MTR-TXT
100
AcDbText
 10
14124.51776649746
 20
3885.0
 30
0.0
 40
70.0
  1
ｍ
  7
ＭＳ ゴシック
 72
     1
 11
14170.0
 21
3920.0
 31
0.0
100
AcDbText
 73
     2
  0
TEXT
  5
F4F3
330
1F
100
AcDbEntity
  8
D-MTR-TXT
100
AcDbText
 10
14432.58883248731
 20
3885.0
 30
0.0
 40
70.0
  1
10.00
  7
ＭＳ ゴシック
 72
     2
 11
14660.0
 21
3920.0
 31
0.0
100
AcDbText
 73
     2
  0
TEXT
  5
F4F4
330
1F
100
AcDbEntity
  8
D-MTR-TXT
100
AcDbText
 10
12660.0
 20
3885.0
 30
0.0
 40
70.0
  1
暗渠パイプ　多孔管φ100以上
  7
ＭＳ ゴシック
 11
12660.0
 21
3920.0
 31
0.0
100
AcDbText
 73
     2
  0
TEXT
  5
F4F5
330
1F
100
AcDbEntity
  8
D-MTR-TXT
100
AcDbText
 10
11660.0
 20
4525.0
 30
0.0
 40
70.0
  1
棚田擁壁
  7
ＭＳ ゴシック
 11
11660.0
 21
4560.0
 31
0.0
100
AcDbText
 73
     2
  0
TEXT
  5
F4F6
330
1F
100
AcDbEntity
  8
D-MTR-TXT
100
AcDbText
 10
14124.51776649746
 20
4525.0
 30
0.0
 40
70.0
  1
個
  7
ＭＳ ゴシック
 72
     1
 11
14170.0
 21
4560.0
 31
0.0
100
AcDbText
 73
     2
  0
TEXT
  5
F4F7
330
1F
100
AcDbEntity
  8
D-MTR-TXT
100
AcDbText
 10
14432.5888324873
 20
4525.0
 30
0.0
 40
70.0
  1
30
  7
ＭＳ ゴシック
 72
     2
 11
14523.55329949237
 21
4560.0
 31
0.0
100
AcDbText
 73
     2
  0
LINE
  5
F4F8
330
1F
100
AcDbEntity
  8
D-MTR-LINE
100
AcDbLine
 10
11620.0
 20
4480.0
 30
0.0
 11
15620.0
 21
4480.0
 31
0.0
  0
TEXT
  5
F4F9
330
1F
100
AcDbEntity
  8
D-MTR-TXT
100
AcDbText
 10
12660.0
 20
4525.0
 30
0.0
 40
70.0
  1
500x1000x2000
  7
ＭＳ ゴシック
 11
12660.0
 21
4560.0
 31
0.0
100
AcDbText
 73
     2
  0
LINE
  5
F4FA
330
1F
100
AcDbEntity
  8
D-MTR-FRAM
100
AcDbLine
 10
15620.0
 20
4840.0
 30
0.0
 11
15620.0
 21
3360.0
 31
0.0
  0
TEXT
  5
F4FB
330
1F
100
AcDbEntity
  8
D-MTR-TXT
100
AcDbText
 10
15014.06091370558
 20
4702.43654822335
 30
0.0
 40
80.0
  1
備　考
  7
ＭＳ ゴシック
 72
     4
 11
15170.0
 21
4740.0
 31
0.0
100
AcDbText
  0
TEXT
  5
F4FC
330
1F
100
AcDbEntity
  8
D-MTR-TXT
100
AcDbText
 10
14760.0
 20
4525.0
 30
0.0
 40
70.0
  1
参考質量： 515kg
  7
ＭＳ ゴシック
 11
14760.0
 21
4560.0
 31
0.0
100
AcDbText
 73
     2
  0
LINE
  5
F4FD
330
1F
100
AcDbEntity
  8
D-MTR-LINE
100
AcDbLine
 10
11620.0
 20
3680.0
 30
0.0
 11
15620.0
 21
3680.0
 31
0.0
  0
TEXT
  5
F4FE
330
1F
100
AcDbEntity
  8
D-MTR-TXT
100
AcDbText
 10
11660.0
 20
3725.0
 30
0.0
 40
70.0
  1
吸い出し防止材
  7
ＭＳ ゴシック
 11
11660.0
 21
3760.0
 31
0.0
100
AcDbText
 73
     2
  0
TEXT
  5
F4FF
330
1F
100
AcDbEntity
  8
D-MTR-TXT
100
AcDbText
 10
14432.58883248731
 20
3725.0
 30
0.0
 40
70.0
  1
35.95
  7
ＭＳ ゴシック
 72
     2
 11
14660.0
 21
3760.0
 31
0.0
100
AcDbText
 73
     2
  0
TEXT
  5
F500
330
1F
100
AcDbEntity
  8
D-MTR-TXT
100
AcDbText
 10
12660.0
 20
3725.0
 30
0.0
 40
70.0
  1
タフネル EX
  7
ＭＳ ゴシック
 11
12660.0
 21
3760.0
 31
0.0
100
AcDbText
 73
     2
  0
LINE
  5
F501
330
1F
100
AcDbEntity
  8
D-MTR-LINE
100
AcDbLine
 10
11620.0
 20
3520.0
 30
0.0
 11
15620.0
 21
3520.0
 31
0.0
  0
TEXT
  5
F502
330
1F
100
AcDbEntity
  8
D-MTR-TXT
100
AcDbText
 10
11660.0
 20
3565.0
 30
0.0
 40
70.0
  1
かごテンサー
  7
ＭＳ ゴシック
 11
11660.0
 21
3600.0
 31
0.0
100
AcDbText
 73
     2
  0
TEXT
  5
F503
330
1F
100
AcDbEntity
  8
D-MTR-TXT
100
AcDbText
 10
14432.58883248731
 20
3565.0
 30
0.0
 40
70.0
  1
38.00
  7
ＭＳ ゴシック
 72
     2
 11
14660.0
 21
3600.0
 31
0.0
100
AcDbText
 73
     2
  0
TEXT
  5
F504
330
1F
100
AcDbEntity
  8
D-MTR-TXT
100
AcDbText
 10
12660.0
 20
3565.0
 30
0.0
 40
70.0
  1
テンサー SS-1
  7
ＭＳ ゴシック
 11
12660.0
 21
3600.0
 31
0.0
100
AcDbText
 73
     2
  0
LINE
  5
F505
330
1F
100
AcDbEntity
  8
D-MTR-FRAM
100
AcDbLine
 10
11620.0
 20
3360.0
 30
0.0
 11
15620.0
 21
3360.0
 31
0.0
  0
TEXT
  5
F506
330
1F
100
AcDbEntity
  8
D-MTR-TXT
100
AcDbText
 10
11660.0
 20
3405.0
 30
0.0
 40
70.0
  1
壁体目地材
  7
ＭＳ ゴシック
 11
11660.0
 21
3440.0
 31
0.0
100
AcDbText
 73
     2
  0
TEXT
  5
F507
330
1F
100
AcDbEntity
  8
D-MTR-TXT
100
AcDbText
 10
12660.0
 20
3405.0
 30
0.0
 40
70.0
  1
ネトロンシート 500x(490+135)
  7
ＭＳ ゴシック
 11
12660.0
 21
3440.0
 31
0.0
100
AcDbText
 73
     2
  0
TEXT
  5
F508
330
1F
100
AcDbEntity
  8
D-MTR-TXT
100
AcDbText
 10
11660.0
 20
4205.0
 30
0.0
 40
70.0
  1
壁体材（裏込部）
  7
ＭＳ ゴシック
 11
11660.0
 21
4240.0
 31
0.0
100
AcDbText
 73
     2
  0
TEXT
  5
F509
330
1F
100
AcDbEntity
  8
D-MTR-TXT
100
AcDbText
 10
14124.51776649746
 20
4285.0
 30
0.0
 40
70.0
  1
ｍ
  7
ＭＳ ゴシック
 72
     1
 11
14170.0
 21
4320.0
 31
0.0
100
AcDbText
 73
     2
  0
TEXT
  5
F50A
330
1F
100
AcDbEntity
  8
D-MTR-TXT
100
AcDbText
 10
14220.0
 20
4320.0
 30
0.0
 40
35.0
  1
3
  7
ＭＳ ゴシック
100
AcDbText
  0
TEXT
  5
F50B
330
1F
100
AcDbEntity
  8
D-MTR-TXT
100
AcDbText
 10
14478.07106598984
 20
4205.0
 30
0.0
 40
70.0
  1
7.65
  7
ＭＳ ゴシック
 72
     2
 11
14660.0
 21
4240.0
 31
0.0
100
AcDbText
 73
     2
  0
LINE
  5
F50C
330
1F
100
AcDbEntity
  8
D-MTR-LINE
100
AcDbLine
 10
11620.0
 20
4160.0
 30
0.0
 11
15620.0
 21
4160.0
 31
0.0
  0
TEXT
  5
F50D
330
1F
100
AcDbEntity
  8
D-MTR-TXT
100
AcDbText
 10
12660.0
 20
4285.0
 30
0.0
 40
70.0
  1
単粒度砕石 S-40前後
  7
ＭＳ ゴシック
 11
12660.0
 21
4320.0
 31
0.0
100
AcDbText
 73
     2
  0
TEXT
  5
F50E
330
1F
100
AcDbEntity
  8
D-MTR-TXT
100
AcDbText
 10
12660.0
 20
4045.0
 30
0.0
 40
70.0
  1
単粒度砕石 S-40前後
  7
ＭＳ ゴシック
 11
12660.0
 21
4080.0
 31
0.0
100
AcDbText
 73
     2
  0
TEXT
  5
F511
330
1F
100
AcDbEntity
  8
D-MTR-TXT
100
AcDbText
 10
14124.51776649746
 20
3725.0
 30
0.0
 40
70.0
  1
ｍ
  7
ＭＳ ゴシック
 72
     1
 11
14170.0
 21
3760.0
 31
0.0
100
AcDbText
 73
     2
  0
TEXT
  5
F512
330
1F
100
AcDbEntity
  8
D-MTR-TXT
100
AcDbText
 10
14220.0
 20
3760.0
 30
0.0
 40
35.0
  1
2
  7
ＭＳ ゴシック
100
AcDbText
  0
TEXT
  5
F513
330
1F
100
AcDbEntity
  8
D-MTR-TXT
100
AcDbText
 10
14124.51776649746
 20
3565.0
 30
0.0
 40
70.0
  1
ｍ
  7
ＭＳ ゴシック
 72
     1
 11
14170.0
 21
3600.0
 31
0.0
100
AcDbText
 73
     2
  0
TEXT
  5
F514
330
1F
100
AcDbEntity
  8
D-MTR-TXT
100
AcDbText
 10
14220.0
 20
3600.0
 30
0.0
 40
35.0
  1
2
  7
ＭＳ ゴシック
100
AcDbText
  0
TEXT
  5
F515
330
1F
100
AcDbEntity
  8
D-MTR-TXT
100
AcDbText
 10
14124.51776649746
 20
3405.0
 30
0.0
 40
70.0
  1
枚
  7
ＭＳ ゴシック
 72
     1
 11
14170.0
 21
3440.0
 31
0.0
100
AcDbText
 73
     2
  0
TEXT
  5
F517
330
1F
100
AcDbEntity
  8
D-MTR-TXT
100
AcDbText
 10
14432.5888324873
 20
3405.0
 30
0.0
 40
70.0
  1
30
  7
ＭＳ ゴシック
 72
     2
 11
14523.55329949237
 21
3440.0
 31
0.0
100
AcDbText
 73
     2
  0
LINE
  5
F518
330
1F
100
AcDbEntity
  8
D-TTL-TXT
 48
0.25
100
AcDbLine
 10
7810.0
 20
9680.0
 30
0.0
 11
9010.0
 21
9680.0
 31
0.0
  0
TEXT
  5
F519
330
1F
100
AcDbEntity
  8
D-TTL-TXT
100
AcDbText
 10
7890.203045685279
 20
9709.238578680203
 30
0.0
 40
160.0
  1
断　面　図
  7
ＭＳ ゴシック
 72
     1
 11
8410.0
 21
9680.0
 31
0.0
100
AcDbText
 73
     1
  0
LINE
  5
F51F
330
1F
100
AcDbEntity
  8
D-STR-STRn
  6
HIDDEN2
100
AcDbLine
 10
6460.0
 20
5780.0
 30
0.0
 11
6860.0
 21
4980.0
 31
0.0
  0
DIMENSION
  5
F520
330
1F
100
AcDbEntity
  8
D-STR-DIM
100
AcDbDimension
  2
*D1
 10
5420.0
 20
5280.000000000004
 30
0.0
 11
5301.336717428087
 21
5530.000000000004
 31
0.0
 70
    32
  1
根入れ\P500mm以上
 71
     5
 42
499.9999999999954
  3
020
100
AcDbAlignedDimension
 13
5560.0
 23
5780.0
 33
0.0
 14
6664.999999999607
 24
5280.000000000004
 34
0.0
 50
90.0
100
AcDbRotatedDimension
  0
DIMENSION
  5
F521
330
1F
100
AcDbEntity
  8
D-STR-DIM
100
AcDbDimension
  2
*D2
 10
8310.0
 20
4420.0
 30
0.0
 11
7585.0
 21
4475.0
 31
0.0
 70
    32
 71
     5
 42
1450.0
  3
020
100
AcDbAlignedDimension
 13
6860.0
 23
4980.0
 33
0.0
 14
8310.0
 24
4980.0
 34
0.0
100
AcDbRotatedDimension
  0
DIMENSION
  5
F522
330
1F
100
AcDbEntity
  8
D-STR-DIM
100
AcDbDimension
  2
*D3
 10
8160.0
 20
4560.0
 30
0.0
 11
7660.0
 21
4615.0
 31
0.0
 70
    32
 71
     5
 42
1000.0
  3
020
100
AcDbAlignedDimension
 13
7160.0
 23
4980.0
 33
0.0
 14
8160.0
 24
4980.0
 34
0.0
100
AcDbRotatedDimension
  0
DIMENSION
  5
F523
330
1F
100
AcDbEntity
  8
D-STR-DIM
100
AcDbDimension
  2
*D4
 10
8310.0
 20
4560.0
 30
0.0
 11
8235.0
 21
4615.0
 31
0.0
 70
    32
 71
     5
 42
150.0
  3
020
100
AcDbAlignedDimension
 13
8160.0
 23
4980.0
 33
0.0
 14
8310.0
 24
4980.0
 34
0.0
100
AcDbRotatedDimension
  0
DIMENSION
  5
F524
330
1F
100
AcDbEntity
  8
D-STR-DIM
100
AcDbDimension
  2
*D5
 10
6860.0
 20
4560.0
 30
0.0
 11
7010.0
 21
4615.0
 31
0.0
 70
    32
 71
     5
 42
300.0
  3
020
100
AcDbAlignedDimension
 13
7160.0
 23
4980.0
 33
0.0
 14
6860.0
 24
4980.0
 34
0.0
100
AcDbRotatedDimension
  0
TEXT
  5
F525
330
1F
100
AcDbEntity
  8
D-STR-TXT
100
AcDbText
 10
6080.0
 20
4610.0
 30
0.0
 40
70.0
  1
単粒度砕石
  7
ＭＳ ゴシック
100
AcDbText
  0
TEXT
  5
F526
330
1F
100
AcDbEntity
  8
D-STR-TXT
100
AcDbText
 10
6080.0
 20
4510.0
 30
0.0
 40
70.0
  1
S-40前後
  7
ＭＳ ゴシック
100
AcDbText
  0
LINE
  5
F527
330
1F
100
AcDbEntity
  8
D-STR-STRn
  6
Continuous
100
AcDbLine
 10
7160.0
 20
5780.0
 30
0.0
 11
5560.0
 21
5780.0
 31
0.0
  0
TEXT
  5
F528
330
1F
100
AcDbEntity
  8
D-STR-TXT
100
AcDbText
 10
6528.65086986991
 20
5441.4521422852
 30
0.0
 40
70.0
  1
1:0.5
 50
296.5650511770774
  7
ＭＳ ゴシック
 72
     1
 11
6642.111456180001
 21
5371.055728090001
 31
0.0
100
AcDbText
 73
     3
  0
TEXT
  5
F529
330
1F
100
AcDbEntity
  8
D-STR-TXT
100
AcDbText
 10
9087.258883448747
 20
7869.855329874159
 30
0.0
 40
70.0
  1
1
  7
ＭＳ ゴシック
 72
     4
 11
9110.000000200015
 21
7904.49999992492
 31
0.0
100
AcDbText
  0
CIRCLE
  5
F52A
330
1F
100
AcDbEntity
  8
D-STR-TXT
100
AcDbCircle
 10
9110.000000200015
 20
7904.49999992492
 30
0.0
 40
60.0
  0
DIMENSION
  5
F52B
330
1F
100
AcDbEntity
  8
D-STR-DIM
100
AcDbDimension
  2
*D6
 10
8409.999999999607
 20
8980.0
 30
0.0
 11
7784.999999999803
 21
9038.730964467005
 31
0.0
 70
    32
  1
{\fMS Gothic|b0|i0|c128|p0;5@250=<>}
 71
     5
 42
1249.999999999607
  3
020
100
AcDbAlignedDimension
 13
7160.0
 23
5780.0
 33
0.0
 14
8409.999999999607
 24
8280.000000000004
 34
0.0
 50
180.0
100
AcDbRotatedDimension
  0
LINE
  5
F52C
330
1F
100
AcDbEntity
  8
D-STR-TXT
100
AcDbLine
 10
6580.0
 20
4700.0
 30
0.0
 11
6080.0
 21
4700.0
 31
0.0
  0
TEXT
  5
F52D
330
1F
100
AcDbEntity
  8
D-STR-TXT
100
AcDbText
 10
6080.0
 20
4720.0
 30
0.0
 40
70.0
  1
基礎砕石　
  7
ＭＳ ゴシック
100
AcDbText
  0
LINE
  5
F52F
330
1F
100
AcDbEntity
  8
D-STR-STRn
  6
Continuous
100
AcDbLine
 10
5715.0
 20
5780.0
 30
0.0
 11
5659.92014147334
 21
5664.793426891556
 31
0.0
  0
LINE
  5
F530
330
1F
100
AcDbEntity
  8
D-STR-STRn
  6
Continuous
100
AcDbLine
 10
5760.0
 20
5780.0
 30
0.0
 11
5704.92014147334
 21
5664.793426891556
 31
0.0
  0
LINE
  5
F531
330
1F
100
AcDbEntity
  8
D-STR-STRn
  6
Continuous
100
AcDbLine
 10
5820.0
 20
5780.0
 30
0.0
 11
5764.920141473339
 21
5664.793426891556
 31
0.0
  0
LINE
  5
F532
330
1F
100
AcDbEntity
  8
D-STR-STRn
  6
Continuous
100
AcDbLine
 10
5865.0
 20
5780.0
 30
0.0
 11
5809.92014147334
 21
5664.793426891556
 31
0.0
  0
LINE
  5
F533
330
1F
100
AcDbEntity
  8
D-STR-STRn
  6
Continuous
100
AcDbLine
 10
5760.0
 20
5780.0
 30
0.0
 11
5808.837017397891
 21
5756.651193273455
 31
0.0
  0
LINE
  5
F534
330
1F
100
AcDbEntity
  8
D-STR-STRn
  6
Continuous
100
AcDbLine
 10
5747.059955988007
 20
5752.934241910335
 30
0.0
 11
5795.896973385898
 21
5729.585435183818
 31
0.0
  0
LINE
  5
F535
330
1F
100
AcDbEntity
  8
D-STR-STRn
  6
Continuous
100
AcDbLine
 10
5734.119911976013
 20
5725.868483820695
 30
0.0
 11
5782.956929373904
 21
5702.519677094151
 31
0.0
  0
LINE
  5
F536
330
1F
100
AcDbEntity
  8
D-STR-STRn
  6
Continuous
100
AcDbLine
 10
5721.17986796402
 20
5698.802725731057
 30
0.0
 11
5770.016885361911
 21
5675.453919004485
 31
0.0
  0
LINE
  5
F537
330
1F
100
AcDbEntity
  8
D-STR-STRn
  6
Continuous
100
AcDbLine
 10
5865.0
 20
5780.0
 30
0.0
 11
5913.837017397892
 21
5756.651193273455
 31
0.0
  0
LINE
  5
F538
330
1F
100
AcDbEntity
  8
D-STR-STRn
  6
Continuous
100
AcDbLine
 10
5852.059955988007
 20
5752.934241910335
 30
0.0
 11
5900.896973385897
 21
5729.585435183818
 31
0.0
  0
LINE
  5
F539
330
1F
100
AcDbEntity
  8
D-STR-STRn
  6
Continuous
100
AcDbLine
 10
5839.119911976013
 20
5725.868483820695
 30
0.0
 11
5887.956929373904
 21
5702.519677094151
 31
0.0
  0
LINE
  5
F53A
330
1F
100
AcDbEntity
  8
D-STR-STRn
  6
Continuous
100
AcDbLine
 10
5826.17986796402
 20
5698.802725731057
 30
0.0
 11
5875.016885361911
 21
5675.453919004485
 31
0.0
  0
TEXT
  5
F53B
330
1F
100
AcDbEntity
  8
D-STR-TXT
100
AcDbText
 10
8994.462003949863
 20
6373.142290674828
 30
0.0
 40
70.0
  1
1:0.5
 50
63.43494882292201
  7
ＭＳ ゴシック
 72
     1
 11
8982.702783519966
 21
6506.148608240019
 31
0.0
100
AcDbText
 73
     3
  0
LEADER
  5
F53C
330
1F
100
AcDbEntity
  8
D-STR-TXT
100
AcDbLeader
  3
020
 76
     2
 10
6900.239104262087
 20
5030.000052468211
 30
0.0
 10
6580.0
 20
4700.0
 30
0.0
1001
ACAD
1000
DSTYLE
1002
{
1070
   147
1040
1.0
1070
    77
1070
     1
1002
}
  0
TEXT
  5
F53D
330
1F
100
AcDbEntity
  8
D-STR-TXT
100
AcDbText
 10
8630.0
 20
4610.0
 30
0.0
 40
70.0
  1
多孔管（樹脂系）
  7
ＭＳ ゴシック
100
AcDbText
  0
TEXT
  5
F53E
330
1F
100
AcDbEntity
  8
D-STR-TXT
100
AcDbText
 10
8630.0
 20
4510.0
 30
0.0
 40
70.0
  1
φ100以上
  7
ＭＳ ゴシック
100
AcDbText
  0
LINE
  5
F53F
330
1F
100
AcDbEntity
  8
D-STR-TXT
100
AcDbLine
 10
9330.0
 20
4700.0
 30
0.0
 11
8590.0
 21
4700.0
 31
0.0
  0
TEXT
  5
F540
330
1F
100
AcDbEntity
  8
D-STR-TXT
100
AcDbText
 10
8630.0
 20
4720.0
 30
0.0
 40
70.0
  1
暗渠パイプ
  7
ＭＳ ゴシック
100
AcDbText
  0
LEADER
  5
F541
330
1F
100
AcDbEntity
  8
D-STR-TXT
100
AcDbLeader
  3
020
 76
     2
 10
8260.0
 20
5030.0
 30
0.0
 10
8590.0
 20
4700.0
 30
0.0
1001
ACAD
1000
DSTYLE
1002
{
1070
   147
1040
1.0
1070
    77
1070
     1
1002
}
  0
TEXT
  5
F542
330
1F
100
AcDbEntity
  8
D-STR-TXT
100
AcDbText
 10
8630.0
 20
4984.324324324324
 30
0.0
 40
70.0
  1
かごテンサー
  7
ＭＳ ゴシック
100
AcDbText
  0
LINE
  5
F543
330
1F
100
AcDbEntity
  8
D-STR-TXT
100
AcDbLine
 10
9270.0
 20
5074.324324324324
 30
0.0
 11
8590.0
 21
5074.324324324324
 31
0.0
  0
TEXT
  5
F544
330
1F
100
AcDbEntity
  8
D-STR-TXT
100
AcDbText
 10
8630.0
 20
5094.324324324325
 30
0.0
 40
70.0
  1
基礎砕石拘束材
  7
ＭＳ ゴシック
100
AcDbText
  0
LEADER
  5
F547
330
1F
100
AcDbEntity
  8
D-STR-TXT
100
AcDbLeader
  3
020
 76
     2
 10
9083.606267937655
 20
7177.111783767883
 30
0.0
 10
9480.440734079669
 20
6994.782434459391
 30
0.0
1001
ACAD
1000
DSTYLE
1002
{
1070
   147
1040
1.0
1070
    77
1070
     1
1002
}
  0
TEXT
  5
F548
330
1F
100
AcDbEntity
  8
D-STR-TXT
100
AcDbText
 10
9520.440734079668
 20
6904.782434459391
 30
0.0
 40
70.0
  1
単粒度砕石
  7
ＭＳ ゴシック
100
AcDbText
  0
TEXT
  5
F549
330
1F
100
AcDbEntity
  8
D-STR-TXT
100
AcDbText
 10
9520.440734079668
 20
6804.78243445939
 30
0.0
 40
70.0
  1
S-40前後
  7
ＭＳ ゴシック
100
AcDbText
  0
TEXT
  5
F54A
330
1F
100
AcDbEntity
  8
D-STR-TXT
100
AcDbText
 10
9520.440734079668
 20
7014.782434459391
 30
0.0
 40
70.0
  1
壁体材
  7
ＭＳ ゴシック
100
AcDbText
  0
LINE
  5
F54B
330
1F
100
AcDbEntity
  8
D-STR-TXT
100
AcDbLine
 10
9980.440734079669
 20
6994.782434459391
 30
0.0
 11
9480.440734079669
 21
6994.782434459391
 31
0.0
  0
LWPOLYLINE
  5
F553
330
1F
100
AcDbEntity
  8
D-STR-STRn
100
AcDbPolyline
 90
        4
 70
     1
 43
0.0
 10
6860.0
 20
5280.0
 10
8310.0
 20
5280.0
 10
8310.0
 20
4980.0
 10
6860.0
 20
4980.0
  0
LWPOLYLINE
  5
F554
330
1F
100
AcDbEntity
  8
D-STR-STRn
  6
HIDDEN2
 62
     2
100
AcDbPolyline
 90
        4
 70
     1
 43
0.0
 10
6830.0
 20
5310.0
 10
8340.0
 20
5310.0
 10
8340.0
 20
4950.0
 10
6830.0
 20
4950.0
  0
LWPOLYLINE
  5
F555
330
1F
100
AcDbEntity
  8
D-STR-STRn
100
AcDbPolyline
 90
        3
 70
     0
 43
0.0
 10
8310.0
 20
5280.0
 10
9560.0
 20
7780.0
 10
9560.0
 20
8280.0
  0
LWPOLYLINE
  5
F557
330
1F
100
AcDbEntity
  8
D-STR-STRn
  6
HIDDEN2
 62
     2
100
AcDbPolyline
 90
        3
 70
     0
 43
0.0
 10
8340.0
 20
5272.917960675005
 10
9590.0
 20
7772.917960675004
 10
9590.0
 20
8280.0
  0
CIRCLE
  5
F558
330
1F
100
AcDbEntity
  8
D-STR-STRn
 62
     2
100
AcDbCircle
 10
8260.0
 20
5030.0
 30
0.0
 40
50.0
  0
LINE
  5
F55A
330
1F
100
AcDbEntity
  8
D-STR-STRn
100
AcDbLine
 10
7160.0
 20
5780.0
 30
0.0
 11
7410.0
 21
5780.0
 31
0.0
  0
LINE
  5
F55C
330
1F
100
AcDbEntity
  8
D-STR-STRn
100
AcDbLine
 10
7410.0
 20
6280.0
 30
0.0
 11
7660.0
 21
6280.0
 31
0.0
  0
LINE
  5
F55E
330
1F
100
AcDbEntity
  8
D-STR-STRn
100
AcDbLine
 10
7660.0
 20
6780.0
 30
0.0
 11
7910.0
 21
6780.0
 31
0.0
  0
LINE
  5
F560
330
1F
100
AcDbEntity
  8
D-STR-STRn
100
AcDbLine
 10
7910.0
 20
7280.0
 30
0.0
 11
8160.0
 21
7280.0
 31
0.0
  0
LINE
  5
F562
330
1F
100
AcDbEntity
  8
D-STR-STRn
100
AcDbLine
 10
8160.0
 20
7780.0
 30
0.0
 11
8410.0
 21
7780.0
 31
0.0
  0
ELLIPSE
  5
F563
330
1F
100
AcDbEntity
  8
D-STR-STRn
 62
     2
100
AcDbEllipse
 10
9268.60467474864
 20
7589.595344932433
 30
0.0
 11
-27.2220025278025
 21
-47.14989146192231
 31
0.0
210
0.0
220
0.0
230
-1.0
 40
0.5454545454545454
 41
0.0
 42
6.283185307179586
  0
ELLIPSE
  5
F564
330
1F
100
AcDbEntity
  8
D-STR-STRn
 62
     2
100
AcDbEllipse
 10
9266.606267937655
 20
7677.111783767883
 30
0.0
 11
-27.2220025278025
 21
-47.14989146192231
 31
0.0
210
0.0
220
0.0
230
-1.0
 40
0.5454545454545454
 41
0.0
 42
6.283185307179586
  0
ELLIPSE
  5
F565
330
1F
100
AcDbEntity
  8
D-STR-STRn
 62
     2
100
AcDbEllipse
 10
9333.606267937655
 20
7677.111783767883
 30
0.0
 11
-27.2220025278025
 21
-47.14989146192231
 31
0.0
210
0.0
220
0.0
230
-1.0
 40
0.5454545454545454
 41
0.0
 42
6.283185307179586
  0
ELLIPSE
  5
F566
330
1F
100
AcDbEntity
  8
D-STR-STRn
 62
     2
100
AcDbEllipse
 10
9018.604674748635
 20
7089.595344932433
 30
0.0
 11
-27.2220025278025
 21
-47.14989146192231
 31
0.0
210
0.0
220
0.0
230
-1.0
 40
0.5454545454545454
 41
0.0
 42
6.283185307179586
  0
ELLIPSE
  5
F567
330
1F
100
AcDbEntity
  8
D-STR-STRn
 62
     2
100
AcDbEllipse
 10
9016.606267937655
 20
7177.111783767883
 30
0.0
 11
-27.2220025278025
 21
-47.14989146192231
 31
0.0
210
0.0
220
0.0
230
-1.0
 40
0.5454545454545454
 41
0.0
 42
6.283185307179586
  0
ELLIPSE
  5
F568
330
1F
100
AcDbEntity
  8
D-STR-STRn
 62
     2
100
AcDbEllipse
 10
9083.606267937655
 20
7177.111783767883
 30
0.0
 11
-27.2220025278025
 21
-47.14989146192231
 31
0.0
210
0.0
220
0.0
230
-1.0
 40
0.5454545454545454
 41
0.0
 42
6.283185307179586
  0
ELLIPSE
  5
F569
330
1F
100
AcDbEntity
  8
D-STR-STRn
 62
     2
100
AcDbEllipse
 10
8768.604674748635
 20
6589.595344932433
 30
0.0
 11
-27.2220025278025
 21
-47.14989146192231
 31
0.0
210
0.0
220
0.0
230
-1.0
 40
0.5454545454545454
 41
0.0
 42
6.283185307179586
  0
ELLIPSE
  5
F56A
330
1F
100
AcDbEntity
  8
D-STR-STRn
 62
     2
100
AcDbEllipse
 10
8766.606267937655
 20
6677.111783767883
 30
0.0
 11
-27.2220025278025
 21
-47.14989146192231
 31
0.0
210
0.0
220
0.0
230
-1.0
 40
0.5454545454545454
 41
0.0
 42
6.283185307179586
  0
ELLIPSE
  5
F56B
330
1F
100
AcDbEntity
  8
D-STR-STRn
 62
     2
100
AcDbEllipse
 10
8833.606267937655
 20
6677.111783767883
 30
0.0
 11
-27.2220025278025
 21
-47.14989146192231
 31
0.0
210
0.0
220
0.0
230
-1.0
 40
0.5454545454545454
 41
0.0
 42
6.283185307179586
  0
ELLIPSE
  5
F56C
330
1F
100
AcDbEntity
  8
D-STR-STRn
 62
     2
100
AcDbEllipse
 10
8518.604674748635
 20
6089.595344932433
 30
0.0
 11
-27.2220025278025
 21
-47.14989146192231
 31
0.0
210
0.0
220
0.0
230
-1.0
 40
0.5454545454545454
 41
0.0
 42
6.283185307179586
  0
ELLIPSE
  5
F56D
330
1F
100
AcDbEntity
  8
D-STR-STRn
 62
     2
100
AcDbEllipse
 10
8516.606267937655
 20
6177.111783767883
 30
0.0
 11
-27.2220025278025
 21
-47.14989146192231
 31
0.0
210
0.0
220
0.0
230
-1.0
 40
0.5454545454545454
 41
0.0
 42
6.283185307179586
  0
ELLIPSE
  5
F56E
330
1F
100
AcDbEntity
  8
D-STR-STRn
 62
     2
100
AcDbEllipse
 10
8583.606267937655
 20
6177.111783767883
 30
0.0
 11
-27.2220025278025
 21
-47.14989146192231
 31
0.0
210
0.0
220
0.0
230
-1.0
 40
0.5454545454545454
 41
0.0
 42
6.283185307179586
  0
ELLIPSE
  5
F56F
330
1F
100
AcDbEntity
  8
D-STR-STRn
 62
     2
100
AcDbEllipse
 10
8268.604674748635
 20
5589.595344932433
 30
0.0
 11
-27.2220025278025
 21
-47.14989146192231
 31
0.0
210
0.0
220
0.0
230
-1.0
 40
0.5454545454545454
 41
0.0
 42
6.283185307179586
  0
ELLIPSE
  5
F570
330
1F
100
AcDbEntity
  8
D-STR-STRn
 62
     2
100
AcDbEllipse
 10
8266.606267937655
 20
5677.111783767883
 30
0.0
 11
-27.2220025278025
 21
-47.14989146192231
 31
0.0
210
0.0
220
0.0
230
-1.0
 40
0.5454545454545454
 41
0.0
 42
6.283185307179586
  0
ELLIPSE
  5
F571
330
1F
100
AcDbEntity
  8
D-STR-STRn
 62
     2
100
AcDbEllipse
 10
8333.606267937655
 20
5677.111783767883
 30
0.0
 11
-27.2220025278025
 21
-47.14989146192231
 31
0.0
210
0.0
220
0.0
230
-1.0
 40
0.5454545454545454
 41
0.0
 42
6.283185307179586
  0
ELLIPSE
  5
F578
330
1F
100
AcDbEntity
  8
D-STR-STRn
 62
     2
100
AcDbEllipse
 10
9387.932660221471
 20
8230.018529197026
 30
0.0
 11
-27.2220025278025
 21
-47.14989146192231
 31
0.0
210
0.0
220
0.0
230
-1.0
 40
0.5454545454545454
 41
0.0
 42
6.283185307179586
  0
ELLIPSE
  5
F579
330
1F
100
AcDbEntity
  8
D-STR-STRn
 62
     2
100
AcDbEllipse
 10
9454.932660221471
 20
8230.018529197026
 30
0.0
 11
-27.2220025278025
 21
-47.14989146192231
 31
0.0
210
0.0
220
0.0
230
-1.0
 40
0.5454545454545454
 41
0.0
 42
6.283185307179586
  0
ELLIPSE
  5
F57A
330
1F
100
AcDbEntity
  8
D-STR-STRn
 62
     2
100
AcDbEllipse
 10
9521.932660221471
 20
8230.018529197026
 30
0.0
 11
-27.2220025278025
 21
-47.14989146192231
 31
0.0
210
0.0
220
0.0
230
-1.0
 40
0.5454545454545454
 41
0.0
 42
6.283185307179586
  0
ELLIPSE
  5
F57B
330
1F
100
AcDbEntity
  8
D-STR-STRn
 62
     2
100
AcDbEllipse
 10
9454.932660221471
 20
8130.018529197027
 30
0.0
 11
-27.2220025278025
 21
-47.14989146192231
 31
0.0
210
0.0
220
0.0
230
-1.0
 40
0.5454545454545454
 41
0.0
 42
6.283185307179586
  0
ELLIPSE
  5
F57C
330
1F
100
AcDbEntity
  8
D-STR-STRn
 62
     2
100
AcDbEllipse
 10
9521.932660221471
 20
8130.018529197027
 30
0.0
 11
-27.2220025278025
 21
-47.14989146192231
 31
0.0
210
0.0
220
0.0
230
-1.0
 40
0.5454545454545454
 41
0.0
 42
6.283185307179586
  0
DIMENSION
  5
F57D
330
1F
100
AcDbEntity
  8
D-STR-DIM
  6
Continuous
370
     0
100
AcDbDimension
  2
*D7
 10
5140.0
 20
5280.000000000001
 30
0.0
 11
5081.269035532994
 21
6780.000000000002
 31
0.0
 70
    32
  1
6@500=<>
 71
     5
 42
3000.0
  3
020
100
AcDbAlignedDimension
 13
8410.0
 23
8280.0
 33
0.0
 14
6860.0
 24
5280.0
 34
0.0
 50
90.0
100
AcDbRotatedDimension
  0
DIMENSION
  5
F57E
330
1F
100
AcDbEntity
  8
D-STR-DIM
  6
Continuous
370
     0
100
AcDbDimension
  2
*D8
 10
5140.0
 20
4980.000000000001
 30
0.0
 11
5084.999999999999
 21
5130.000000000002
 31
0.0
 70
    32
 71
     5
 42
300.0
  3
020
100
AcDbAlignedDimension
 13
6860.0
 23
5280.0
 33
0.0
 14
6860.0
 24
4980.0
 34
0.0
 50
90.0
100
AcDbRotatedDimension
  0
ELLIPSE
  5
F589
330
1F
100
AcDbEntity
  8
D-STR-STRn
 62
     2
100
AcDbEllipse
 10
7937.239104263018
 20
5030.000052468211
 30
0.0
 11
-27.2220025283469
 21
-47.14989146286528
 31
0.0
210
0.0
220
0.0
230
-0.9999999999999998
 40
0.5454545454545455
 41
0.0
 42
6.283185307179586
  0
ELLIPSE
  5
F58A
330
1F
100
AcDbEntity
  8
D-STR-STRn
 62
     2
100
AcDbEllipse
 10
7937.239104263018
 20
5130.000052468211
 30
0.0
 11
-27.2220025283469
 21
-47.14989146286528
 31
0.0
210
0.0
220
0.0
230
-0.9999999999999998
 40
0.5454545454545455
 41
0.0
 42
6.283185307179586
  0
ELLIPSE
  5
F58B
330
1F
100
AcDbEntity
  8
D-STR-STRn
 62
     2
100
AcDbEllipse
 10
7937.239104263018
 20
5230.000052468211
 30
0.0
 11
-27.2220025283469
 21
-47.14989146286528
 31
0.0
210
0.0
220
0.0
230
-0.9999999999999998
 40
0.5454545454545455
 41
0.0
 42
6.283185307179586
  0
ELLIPSE
  5
F58C
330
1F
100
AcDbEntity
  8
D-STR-STRn
 62
     2
100
AcDbEllipse
 10
8004.239104263019
 20
5030.000052468211
 30
0.0
 11
-27.2220025283469
 21
-47.14989146286528
 31
0.0
210
0.0
220
0.0
230
-0.9999999999999998
 40
0.5454545454545455
 41
0.0
 42
6.283185307179586
  0
ELLIPSE
  5
F58D
330
1F
100
AcDbEntity
  8
D-STR-STRn
 62
     2
100
AcDbEllipse
 10
8004.239104263019
 20
5130.000052468211
 30
0.0
 11
-27.2220025283469
 21
-47.14989146286528
 31
0.0
210
0.0
220
0.0
230
-0.9999999999999998
 40
0.5454545454545455
 41
0.0
 42
6.283185307179586
  0
ELLIPSE
  5
F58E
330
1F
100
AcDbEntity
  8
D-STR-STRn
 62
     2
100
AcDbEllipse
 10
8004.239104263019
 20
5230.000052468211
 30
0.0
 11
-27.2220025283469
 21
-47.14989146286528
 31
0.0
210
0.0
220
0.0
230
-0.9999999999999998
 40
0.5454545454545455
 41
0.0
 42
6.283185307179586
  0
ELLIPSE
  5
F58F
330
1F
100
AcDbEntity
  8
D-STR-STRn
 62
     2
100
AcDbEllipse
 10
8071.239104263019
 20
5030.000052468211
 30
0.0
 11
-27.2220025283469
 21
-47.14989146286528
 31
0.0
210
0.0
220
0.0
230
-0.9999999999999998
 40
0.5454545454545455
 41
0.0
 42
6.283185307179586
  0
ELLIPSE
  5
F590
330
1F
100
AcDbEntity
  8
D-STR-STRn
 62
     2
100
AcDbEllipse
 10
8071.239104263019
 20
5130.000052468211
 30
0.0
 11
-27.2220025283469
 21
-47.14989146286528
 31
0.0
210
0.0
220
0.0
230
-0.9999999999999998
 40
0.5454545454545455
 41
0.0
 42
6.283185307179586
  0
ELLIPSE
  5
F591
330
1F
100
AcDbEntity
  8
D-STR-STRn
 62
     2
100
AcDbEllipse
 10
8071.239104263019
 20
5230.000052468211
 30
0.0
 11
-27.2220025283469
 21
-47.14989146286528
 31
0.0
210
0.0
220
0.0
230
-0.9999999999999998
 40
0.5454545454545455
 41
0.0
 42
6.283185307179586
  0
ELLIPSE
  5
F592
330
1F
100
AcDbEntity
  8
D-STR-STRn
 62
     2
100
AcDbEllipse
 10
8138.239104263019
 20
5030.000052468211
 30
0.0
 11
-27.2220025283469
 21
-47.14989146286528
 31
0.0
210
0.0
220
0.0
230
-0.9999999999999998
 40
0.5454545454545455
 41
0.0
 42
6.283185307179586
  0
ELLIPSE
  5
F593
330
1F
100
AcDbEntity
  8
D-STR-STRn
 62
     2
100
AcDbEllipse
 10
8138.239104263019
 20
5130.000052468211
 30
0.0
 11
-27.2220025283469
 21
-47.14989146286528
 31
0.0
210
0.0
220
0.0
230
-0.9999999999999998
 40
0.5454545454545455
 41
0.0
 42
6.283185307179586
  0
ELLIPSE
  5
F594
330
1F
100
AcDbEntity
  8
D-STR-STRn
 62
     2
100
AcDbEllipse
 10
8138.239104263019
 20
5230.000052468211
 30
0.0
 11
-27.2220025283469
 21
-47.14989146286528
 31
0.0
210
0.0
220
0.0
230
-0.9999999999999998
 40
0.5454545454545455
 41
0.0
 42
6.283185307179586
  0
ELLIPSE
  5
F595
330
1F
100
AcDbEntity
  8
D-STR-STRn
 62
     2
100
AcDbEllipse
 10
8205.23910426302
 20
5030.000052468211
 30
0.0
 11
-27.2220025283469
 21
-47.14989146286528
 31
0.0
210
0.0
220
0.0
230
-0.9999999999999998
 40
0.5454545454545455
 41
5.062023300968331
 42
9.590849034118328
  0
ELLIPSE
  5
F596
330
1F
100
AcDbEntity
  8
D-STR-STRn
 62
     2
100
AcDbEllipse
 10
8205.23910426302
 20
5130.000052468211
 30
0.0
 11
-27.2220025283469
 21
-47.14989146286528
 31
0.0
210
0.0
220
0.0
230
-0.9999999999999998
 40
0.5454545454545455
 41
0.0
 42
6.283185307179586
  0
ELLIPSE
  5
F597
330
1F
100
AcDbEntity
  8
D-STR-STRn
 62
     2
100
AcDbEllipse
 10
8205.23910426302
 20
5230.000052468211
 30
0.0
 11
-27.2220025283469
 21
-47.14989146286528
 31
0.0
210
0.0
220
0.0
230
-0.9999999999999998
 40
0.5454545454545455
 41
0.0
 42
6.283185307179586
  0
ELLIPSE
  5
F598
330
1F
100
AcDbEntity
  8
D-STR-STRn
 62
     2
100
AcDbEllipse
 10
8272.23910426302
 20
5230.000052468211
 30
0.0
 11
-27.2220025283469
 21
-47.14989146286528
 31
0.0
210
0.0
220
0.0
230
-0.9999999999999998
 40
0.5454545454545455
 41
0.0
 42
6.283185307179586
  0
ELLIPSE
  5
F599
330
1F
100
AcDbEntity
  8
D-STR-STRn
 62
     2
100
AcDbEllipse
 10
8272.23910426302
 20
5130.000052468211
 30
0.0
 11
-27.2220025283469
 21
-47.14989146286528
 31
0.0
210
0.0
220
0.0
230
-0.9999999999999998
 40
0.5454545454545455
 41
0.0
 42
6.283185307179586
  0
ELLIPSE
  5
F59A
330
1F
100
AcDbEntity
  8
D-STR-STRn
 62
     2
100
AcDbEllipse
 10
7870.23910426302
 20
5030.000052468211
 30
0.0
 11
-27.2220025283469
 21
-47.14989146286528
 31
0.0
210
0.0
220
0.0
230
-0.9999999999999998
 40
0.5454545454545455
 41
0.0
 42
6.283185307179586
  0
ELLIPSE
  5
F59B
330
1F
100
AcDbEntity
  8
D-STR-STRn
 62
     2
100
AcDbEllipse
 10
7870.23910426302
 20
5130.000052468211
 30
0.0
 11
-27.2220025283469
 21
-47.14989146286528
 31
0.0
210
0.0
220
0.0
230
-0.9999999999999998
 40
0.5454545454545455
 41
0.0
 42
6.283185307179586
  0
ELLIPSE
  5
F59C
330
1F
100
AcDbEntity
  8
D-STR-STRn
 62
     2
100
AcDbEllipse
 10
7870.23910426302
 20
5230.000052468211
 30
0.0
 11
-27.2220025283469
 21
-47.14989146286528
 31
0.0
210
0.0
220
0.0
230
-0.9999999999999998
 40
0.5454545454545455
 41
0.0
 42
6.283185307179586
  0
ELLIPSE
  5
F59D
330
1F
100
AcDbEntity
  8
D-STR-STRn
 62
     2
100
AcDbEllipse
 10
6900.239104263019
 20
5230.000052468211
 30
0.0
 11
-27.2220025283469
 21
-47.14989146286528
 31
0.0
210
0.0
220
0.0
230
-0.9999999999999998
 40
0.5454545454545455
 41
0.0
 42
6.283185307179586
  0
ELLIPSE
  5
F59E
330
1F
100
AcDbEntity
  8
D-STR-STRn
 62
     2
100
AcDbEllipse
 10
6967.239104263019
 20
5230.000052468211
 30
0.0
 11
-27.2220025283469
 21
-47.14989146286528
 31
0.0
210
0.0
220
0.0
230
-0.9999999999999998
 40
0.5454545454545455
 41
0.0
 42
6.283185307179586
  0
ELLIPSE
  5
F59F
330
1F
100
AcDbEntity
  8
D-STR-STRn
 62
     2
100
AcDbEllipse
 10
7034.239104263019
 20
5130.000052468211
 30
0.0
 11
-27.2220025283469
 21
-47.14989146286528
 31
0.0
210
0.0
220
0.0
230
-0.9999999999999998
 40
0.5454545454545455
 41
0.0
 42
6.283185307179586
  0
ELLIPSE
  5
F5A0
330
1F
100
AcDbEntity
  8
D-STR-STRn
 62
     2
100
AcDbEllipse
 10
7034.239104263019
 20
5230.000052468211
 30
0.0
 11
-27.2220025283469
 21
-47.14989146286528
 31
0.0
210
0.0
220
0.0
230
-0.9999999999999998
 40
0.5454545454545455
 41
0.0
 42
6.283185307179586
  0
ELLIPSE
  5
F5A1
330
1F
100
AcDbEntity
  8
D-STR-STRn
 62
     2
100
AcDbEllipse
 10
7101.239104263484
 20
5130.000052468211
 30
0.0
 11
-27.2220025283469
 21
-47.14989146286528
 31
0.0
210
0.0
220
0.0
230
-0.9999999999999998
 40
0.5454545454545455
 41
0.0
 42
6.283185307179586
  0
ELLIPSE
  5
F5A2
330
1F
100
AcDbEntity
  8
D-STR-STRn
 62
     2
100
AcDbEllipse
 10
7101.239104263484
 20
5230.000052468211
 30
0.0
 11
-27.2220025283469
 21
-47.14989146286528
 31
0.0
210
0.0
220
0.0
230
-0.9999999999999998
 40
0.5454545454545455
 41
0.0
 42
6.283185307179586
  0
ELLIPSE
  5
F5A3
330
1F
100
AcDbEntity
  8
D-STR-STRn
 62
     2
100
AcDbEllipse
 10
7168.239104263019
 20
5130.000052468211
 30
0.0
 11
-27.2220025283469
 21
-47.14989146286528
 31
0.0
210
0.0
220
0.0
230
-0.9999999999999998
 40
0.5454545454545455
 41
0.0
 42
6.283185307179586
  0
ELLIPSE
  5
F5A4
330
1F
100
AcDbEntity
  8
D-STR-STRn
 62
     2
100
AcDbEllipse
 10
7168.239104263019
 20
5230.000052468211
 30
0.0
 11
-27.2220025283469
 21
-47.14989146286528
 31
0.0
210
0.0
220
0.0
230
-0.9999999999999998
 40
0.5454545454545455
 41
0.0
 42
6.283185307179586
  0
ELLIPSE
  5
F5A5
330
1F
100
AcDbEntity
  8
D-STR-STRn
 62
     2
100
AcDbEllipse
 10
7235.239104263019
 20
5130.000052468211
 30
0.0
 11
-27.2220025283469
 21
-47.14989146286528
 31
0.0
210
0.0
220
0.0
230
-0.9999999999999998
 40
0.5454545454545455
 41
0.0
 42
6.283185307179586
  0
ELLIPSE
  5
F5A6
330
1F
100
AcDbEntity
  8
D-STR-STRn
 62
     2
100
AcDbEllipse
 10
7235.239104263019
 20
5230.000052468211
 30
0.0
 11
-27.2220025283469
 21
-47.14989146286528
 31
0.0
210
0.0
220
0.0
230
-0.9999999999999998
 40
0.5454545454545455
 41
0.0
 42
6.283185307179586
  0
ELLIPSE
  5
F5A7
330
1F
100
AcDbEntity
  8
D-STR-STRn
 62
     2
100
AcDbEllipse
 10
7302.239104262553
 20
5230.000052468211
 30
0.0
 11
-27.2220025283469
 21
-47.14989146286528
 31
0.0
210
0.0
220
0.0
230
-0.9999999999999998
 40
0.5454545454545455
 41
0.0
 42
6.283185307179586
  0
ELLIPSE
  5
F5A8
330
1F
100
AcDbEntity
  8
D-STR-STRn
 62
     2
100
AcDbEllipse
 10
7302.239104262553
 20
5130.000052468211
 30
0.0
 11
-27.2220025283469
 21
-47.14989146286528
 31
0.0
210
0.0
220
0.0
230
-0.9999999999999998
 40
0.5454545454545455
 41
0.0
 42
6.283185307179586
  0
ELLIPSE
  5
F5A9
330
1F
100
AcDbEntity
  8
D-STR-STRn
 62
     2
100
AcDbEllipse
 10
7101.239104263484
 20
5030.000052468211
 30
0.0
 11
-27.2220025283469
 21
-47.14989146286528
 31
0.0
210
0.0
220
0.0
230
-0.9999999999999998
 40
0.5454545454545455
 41
0.0
 42
6.283185307179586
  0
ELLIPSE
  5
F5AA
330
1F
100
AcDbEntity
  8
D-STR-STRn
 62
     2
100
AcDbEllipse
 10
7168.239104263019
 20
5030.000052468211
 30
0.0
 11
-27.2220025283469
 21
-47.14989146286528
 31
0.0
210
0.0
220
0.0
230
-0.9999999999999998
 40
0.5454545454545455
 41
0.0
 42
6.283185307179586
  0
ELLIPSE
  5
F5AB
330
1F
100
AcDbEntity
  8
D-STR-STRn
 62
     2
100
AcDbEllipse
 10
7235.239104263019
 20
5030.000052468211
 30
0.0
 11
-27.2220025283469
 21
-47.14989146286528
 31
0.0
210
0.0
220
0.0
230
-0.9999999999999998
 40
0.5454545454545455
 41
0.0
 42
6.283185307179586
  0
ELLIPSE
  5
F5AC
330
1F
100
AcDbEntity
  8
D-STR-STRn
 62
     2
100
AcDbEllipse
 10
7302.239104262553
 20
5030.000052468211
 30
0.0
 11
-27.2220025283469
 21
-47.14989146286528
 31
0.0
210
0.0
220
0.0
230
-0.9999999999999998
 40
0.5454545454545455
 41
0.0
 42
6.283185307179586
  0
ELLIPSE
  5
F5AD
330
1F
100
AcDbEntity
  8
D-STR-STRn
 62
     2
100
AcDbEllipse
 10
7034.239104263019
 20
5030.000052468211
 30
0.0
 11
-27.2220025283469
 21
-47.14989146286528
 31
0.0
210
0.0
220
0.0
230
-1.0
 40
0.5454545454545455
 41
0.0
 42
6.283185307179586
  0
ELLIPSE
  5
F5AE
330
1F
100
AcDbEntity
  8
D-STR-STRn
 62
     2
100
AcDbEllipse
 10
6967.239104262553
 20
5130.000052468211
 30
0.0
 11
-27.2220025283469
 21
-47.14989146286528
 31
0.0
210
0.0
220
0.0
230
-1.0
 40
0.5454545454545455
 41
0.0
 42
6.283185307179586
  0
ELLIPSE
  5
F5AF
330
1F
100
AcDbEntity
  8
D-STR-STRn
 62
     2
100
AcDbEllipse
 10
6967.239104262553
 20
5030.000052468211
 30
0.0
 11
-27.2220025283469
 21
-47.14989146286528
 31
0.0
210
0.0
220
0.0
230
-1.0
 40
0.5454545454545455
 41
0.0
 42
6.283185307179586
  0
ELLIPSE
  5
F5B0
330
1F
100
AcDbEntity
  8
D-STR-STRn
 62
     2
100
AcDbEllipse
 10
6900.239104262087
 20
5130.000052468211
 30
0.0
 11
-27.2220025283469
 21
-47.14989146286528
 31
0.0
210
0.0
220
0.0
230
-1.0
 40
0.5454545454545455
 41
0.0
 42
6.283185307179586
  0
ELLIPSE
  5
F5B1
330
1F
100
AcDbEntity
  8
D-STR-STRn
 62
     2
100
AcDbEllipse
 10
6900.239104262087
 20
5030.000052468211
 30
0.0
 11
-27.2220025283469
 21
-47.14989146286528
 31
0.0
210
0.0
220
0.0
230
-0.9999999999999998
 40
0.5454545454545455
 41
0.0
 42
6.283185307179586
  0
LEADER
  5
F5C4
330
1F
100
AcDbEntity
  8
D-STR-TXT
100
AcDbLeader
  3
020
 76
     2
 10
8655.791019624958
 20
5904.499999924918
 30
0.0
 10
8883.083643711474
 20
5800.068253723004
 30
0.0
1001
ACAD
1000
DSTYLE
1002
{
1070
   147
1040
1.0
1070
    77
1070
     1
1002
}
  0
LEADER
  5
F5C5
330
1F
100
AcDbEntity
  8
D-STR-TXT
100
AcDbLeader
  3
020
 76
     2
 10
8340.0
 20
5189.189189189188
 30
0.0
 10
8590.0
 20
5074.324324324324
 30
0.0
1001
ACAD
1000
DSTYLE
1002
{
1070
   147
1040
1.0
1070
    77
1070
     1
1002
}
  0
LINE
  5
F5C6
330
1F
100
AcDbEntity
  8
D-STR-STRn
  6
Continuous
100
AcDbLine
 10
8410.0
 20
8280.0
 30
0.0
 11
11410.0
 21
8280.0
 31
0.0
  0
LINE
  5
F5C7
330
1F
100
AcDbEntity
  8
D-STR-STRn
  6
Continuous
100
AcDbLine
 10
10974.17467029619
 20
8280.0
 30
0.0
 11
10919.09481176954
 21
8164.793426891556
 31
0.0
  0
LINE
  5
F5C8
330
1F
100
AcDbEntity
  8
D-STR-STRn
  6
Continuous
100
AcDbLine
 10
11019.17467029619
 20
8280.0
 30
0.0
 11
10964.09481176954
 21
8164.793426891556
 31
0.0
  0
LINE
  5
F5C9
330
1F
100
AcDbEntity
  8
D-STR-STRn
  6
Continuous
100
AcDbLine
 10
11079.17467029619
 20
8280.0
 30
0.0
 11
11024.09481176954
 21
8164.793426891556
 31
0.0
  0
LINE
  5
F5CA
330
1F
100
AcDbEntity
  8
D-STR-STRn
  6
Continuous
100
AcDbLine
 10
11124.1746702962
 20
8280.0
 30
0.0
 11
11069.09481176953
 21
8164.793426891556
 31
0.0
  0
LINE
  5
F5CB
330
1F
100
AcDbEntity
  8
D-STR-STRn
  6
Continuous
100
AcDbLine
 10
11019.17467029619
 20
8280.0
 30
0.0
 11
11068.01168769409
 21
8256.651193273455
 31
0.0
  0
LINE
  5
F5CC
330
1F
100
AcDbEntity
  8
D-STR-STRn
  6
Continuous
100
AcDbLine
 10
11006.2346262842
 20
8252.934241910335
 30
0.0
 11
11055.07164368209
 21
8229.585435183818
 31
0.0
  0
LINE
  5
F5CD
330
1F
100
AcDbEntity
  8
D-STR-STRn
  6
Continuous
100
AcDbLine
 10
10993.29458227221
 20
8225.868483820695
 30
0.0
 11
11042.1315996701
 21
8202.519677094151
 31
0.0
  0
LINE
  5
F5CE
330
1F
100
AcDbEntity
  8
D-STR-STRn
  6
Continuous
100
AcDbLine
 10
10980.35453826021
 20
8198.802725731058
 30
0.0
 11
11029.19155565811
 21
8175.453919004485
 31
0.0
  0
LINE
  5
F5CF
330
1F
100
AcDbEntity
  8
D-STR-STRn
  6
Continuous
100
AcDbLine
 10
11124.1746702962
 20
8280.0
 30
0.0
 11
11173.01168769409
 21
8256.651193273455
 31
0.0
  0
LINE
  5
F5D0
330
1F
100
AcDbEntity
  8
D-STR-STRn
  6
Continuous
100
AcDbLine
 10
11111.2346262842
 20
8252.934241910335
 30
0.0
 11
11160.07164368209
 21
8229.585435183818
 31
0.0
  0
LINE
  5
F5D1
330
1F
100
AcDbEntity
  8
D-STR-STRn
  6
Continuous
100
AcDbLine
 10
11098.29458227221
 20
8225.868483820695
 30
0.0
 11
11147.1315996701
 21
8202.519677094151
 31
0.0
  0
LINE
  5
F5D2
330
1F
100
AcDbEntity
  8
D-STR-STRn
  6
Continuous
100
AcDbLine
 10
11085.35453826021
 20
8198.802725731058
 30
0.0
 11
11134.19155565811
 21
8175.453919004485
 31
0.0
  0
ELLIPSE
  5
F5D3
330
1F
100
AcDbEntity
  8
D-STR-STRn
 62
     2
100
AcDbEllipse
 10
9320.932660221471
 20
8230.018529197026
 30
0.0
 11
-27.2220025278025
 21
-47.14989146192231
 31
0.0
210
0.0
220
0.0
230
-1.0
 40
0.5454545454545454
 41
0.0
 42
6.283185307179586
  0
ELLIPSE
  5
F5D4
330
1F
100
AcDbEntity
  8
D-STR-STRn
 62
     2
100
AcDbEllipse
 10
9387.932660221471
 20
8130.018529197027
 30
0.0
 11
-27.2220025278025
 21
-47.14989146192231
 31
0.0
210
0.0
220
0.0
230
-1.0
 40
0.5454545454545454
 41
0.0
 42
6.283185307179586
  0
ELLIPSE
  5
F5D5
330
1F
100
AcDbEntity
  8
D-STR-STRn
 62
     2
100
AcDbEllipse
 10
9253.932660221471
 20
8230.018529197026
 30
0.0
 11
-27.2220025278025
 21
-47.14989146192231
 31
0.0
210
0.0
220
0.0
230
-1.0
 40
0.5454545454545454
 41
0.0
 42
6.283185307179586
  0
ELLIPSE
  5
F5D6
330
1F
100
AcDbEntity
  8
D-STR-STRn
 62
     2
100
AcDbEllipse
 10
9320.932660221471
 20
8130.018529197027
 30
0.0
 11
-27.2220025278025
 21
-47.14989146192231
 31
0.0
210
0.0
220
0.0
230
-1.0
 40
0.5454545454545454
 41
0.0
 42
6.283185307179586
  0
TEXT
  5
F8C5
330
1F
100
AcDbEntity
  8
D-STR-TXT
100
AcDbText
 10
8180.0
 20
7800.0
 30
0.0
 40
70.0
  1
250
  7
ＭＳ ゴシック
100
AcDbText
  0
TEXT
  5
F8C6
330
1F
100
AcDbEntity
  8
D-STR-TXT
100
AcDbText
 10
7930.0
 20
7300.0
 30
0.0
 40
70.0
  1
250
  7
ＭＳ ゴシック
100
AcDbText
  0
TEXT
  5
F8C7
330
1F
100
AcDbEntity
  8
D-STR-TXT
100
AcDbText
 10
7680.0
 20
6800.0
 30
0.0
 40
70.0
  1
250
  7
ＭＳ ゴシック
100
AcDbText
  0
TEXT
  5
F8C8
330
1F
100
AcDbEntity
  8
D-STR-TXT
100
AcDbText
 10
7430.0
 20
6300.0
 30
0.0
 40
70.0
  1
250
  7
ＭＳ ゴシック
100
AcDbText
  0
TEXT
  5
F8C9
330
1F
100
AcDbEntity
  8
D-STR-TXT
100
AcDbText
 10
7180.0
 20
5800.0
 30
0.0
 40
70.0
  1
250
  7
ＭＳ ゴシック
100
AcDbText
  0
TEXT
  5
FB05
330
1F
100
AcDbEntity
  8
D-DOC
100
AcDbText
 10
11620.0
 20
2960.0
 30
0.0
 40
70.0
  1
注）１．断面の小段幅は、前面の模様厚を含まない。
  7
ＭＳ ゴシック
100
AcDbText
  0
TEXT
  5
FB06
330
1F
100
AcDbEntity
  8
D-DOC
100
AcDbText
 10
11620.0
 20
2720.0
 30
0.0
 40
70.0
  1
　　３．背面土の盛土材は、土質試験により土質定数（φ、Ｃ、γ）を確認する。
  7
ＭＳ ゴシック
100
AcDbText
  0
TEXT
  5
FB07
330
1F
100
AcDbEntity
  8
D-DOC
100
AcDbText
 10
11620.0
 20
2600.0
 30
0.0
 40
70.0
  1
　　４．切土掘削の法勾配は、土質状態により協議の上決定する。
  7
ＭＳ ゴシック
100
AcDbText
  0
TEXT
  5
FB08
330
1F
100
AcDbEntity
  8
D-DOC
100
AcDbText
 10
11620.27933280798
 20
2462.693047712722
 30
0.0
 40
70.0
  1
　　５．現地盤の支持力を確認する。
  7
ＭＳ ゴシック
100
AcDbText
  0
TEXT
  5
FB09
330
1F
100
AcDbEntity
  8
D-DOC
100
AcDbText
 10
11620.0
 20
2840.0
 30
0.0
 40
70.0
  1
　　２．現地の状況を確認の上、安定に対する検討を行う。
  7
ＭＳ ゴシック
100
AcDbText
  0
LINE
  5
FC43
330
1F
100
AcDbEntity
  8
D-STR-TXT
100
AcDbLine
 10
9583.083643711473
 20
5800.068253723004
 30
0.0
 11
8883.083643711474
 21
5800.068253723004
 31
0.0
  0
TEXT
  5
FC44
330
1F
100
AcDbEntity
  8
D-STR-TXT
100
AcDbText
 10
8923.083643711475
 20
5820.068253723005
 30
0.0
 40
70.0
  1
吸い出し防止材
  7
ＭＳ ゴシック
100
AcDbText
  0
TEXT
  5
FC7B
330
1F
100
AcDbEntity
  8
D-STR-TXT
100
AcDbText
 10
7709.999999999607
 20
8580.0
 30
0.0
 40
70.0
  1
棚田擁壁
  7
ＭＳ ゴシック
100
AcDbText
  0
LEADER
  5
FC7C
330
1F
100
AcDbEntity
  8
D-STR-TXT
100
AcDbLeader
  3
020
 76
     2
 10
8460.315690647004
 20
8187.075463882672
 30
0.0
 10
8129.999999999608
 20
8560.0
 30
0.0
1001
ACAD
1000
DSTYLE
1002
{
1070
   147
1040
1.0
1070
    77
1070
     1
1002
}
  0
LINE
  5
FC7D
330
1F
100
AcDbEntity
  8
D-STR-TXT
100
AcDbLine
 10
8129.999999999608
 20
8560.0
 30
0.0
 11
7709.999999999607
 21
8560.0
 31
0.0
  0
TEXT
  5
FC91
330
1F
100
AcDbEntity
  8
D-STR-TXT
100
AcDbText
 10
8837.258883448747
 20
7369.855329874159
 30
0.0
 40
70.0
  1
2
  7
ＭＳ ゴシック
 72
     4
 11
8860.000000200015
 21
7404.49999992492
 31
0.0
100
AcDbText
  0
CIRCLE
  5
FC92
330
1F
100
AcDbEntity
  8
D-STR-TXT
100
AcDbCircle
 10
8860.000000200015
 20
7404.49999992492
 30
0.0
 40
60.0
  0
TEXT
  5
FC93
330
1F
100
AcDbEntity
  8
D-STR-TXT
100
AcDbText
 10
8587.258883448747
 20
6869.855329874159
 30
0.0
 40
70.0
  1
3
  7
ＭＳ ゴシック
 72
     4
 11
8610.000000200015
 21
6904.49999992492
 31
0.0
100
AcDbText
  0
CIRCLE
  5
FC94
330
1F
100
AcDbEntity
  8
D-STR-TXT
100
AcDbCircle
 10
8610.000000200015
 20
6904.49999992492
 30
0.0
 40
60.0
  0
TEXT
  5
FC95
330
1F
100
AcDbEntity
  8
D-STR-TXT
100
AcDbText
 10
8337.258883448747
 20
6369.855329874158
 30
0.0
 40
70.0
  1
4
  7
ＭＳ ゴシック
 72
     4
 11
8360.000000200015
 21
6404.49999992492
 31
0.0
100
AcDbText
  0
CIRCLE
  5
FC96
330
1F
100
AcDbEntity
  8
D-STR-TXT
100
AcDbCircle
 10
8360.000000200015
 20
6404.49999992492
 30
0.0
 40
60.0
  0
TEXT
  5
FC97
330
1F
100
AcDbEntity
  8
D-STR-TXT
100
AcDbText
 10
8087.258883448747
 20
5869.855329874158
 30
0.0
 40
70.0
  1
5
  7
ＭＳ ゴシック
 72
     4
 11
8110.000000200017
 21
5904.499999924919
 31
0.0
100
AcDbText
  0
CIRCLE
  5
FC98
330
1F
100
AcDbEntity
  8
D-STR-TXT
100
AcDbCircle
 10
8110.000000200017
 20
5904.499999924919
 30
0.0
 40
60.0
  0
TEXT
  5
FC99
330
1F
100
AcDbEntity
  8
D-STR-TXT
100
AcDbText
 10
7837.258883448747
 20
5369.855329874158
 30
0.0
 40
70.0
  1
6
  7
ＭＳ ゴシック
 72
     4
 11
7860.000000200017
 21
5404.499999924919
 31
0.0
100
AcDbText
  0
CIRCLE
  5
FC9A
330
1F
100
AcDbEntity
  8
D-STR-TXT
100
AcDbCircle
 10
7860.000000200017
 20
5404.499999924919
 30
0.0
 40
60.0
  0
TEXT
  5
FD1C
330
1F
100
AcDbEntity
  8
D-TTL-TXT
100
AcDbText
 10
14679.99999499996
 20
780.0
 30
0.0
 40
75.0
  1
20
  7
ＭＳ ゴシック
100
AcDbText
  0
LINE
  5
FD1D
330
1F
100
AcDbEntity
  8
D-TTL-LINE
100
AcDbLine
 10
15619.99999999998
 20
980.0
 30
0.0
 11
15620.0
 21
750.0
 31
0.0
  0
LINE
  5
FD1E
330
1F
100
AcDbEntity
  8
D-TTL-LINE
100
AcDbLine
 10
14900.0
 20
980.0
 30
0.0
 11
14900.0
 21
750.0
 31
0.0
  0
TEXT
  5
FD1F
330
1F
100
AcDbEntity
  8
D-TTL-TXT
100
AcDbText
 10
15000.10152284264
 20
798.2741116751269
 30
0.0
 40
100.0
  1
発行年月
  7
ＭＳ ゴシック
 72
     1
 11
15260.0
 21
780.0
 31
0.0
100
AcDbText
 73
     1
  0
TEXT
  5
FD20
330
1F
100
AcDbEntity
  8
D-TTL-TXT
100
AcDbText
 10
15745.0
 20
798.2741116751269
 30
0.0
 40
100.0
  1
2009.6
  7
ＭＳ ゴシック
 11
15745.0
 21
780.0
 31
0.0
100
AcDbText
 73
     1
  0
TEXT
  5
FD21
330
1F
100
AcDbEntity
  8
D-TTL-TXT
100
AcDbText
 10
14579.99999499996
 20
850.0
 30
0.0
 40
75.0
  1
1
  7
ＭＳ ゴシック
100
AcDbText
  0
LINE
  5
FD22
330
1F
100
AcDbEntity
  8
D-TTL-TXT
100
AcDbLine
 10
14589.99999499996
 20
780.0
 30
0.0
 11
14729.99999499996
 21
920.0
 31
0.0
  0
INSERT
  5
FD4F
330
1F
100
AcDbEntity
  8
D-STR-STRn
100
AcDbBlockReference
  2
T-D
 10
7160.0
 20
5780.0
 30
0.0
  0
INSERT
  5
FD50
330
1F
100
AcDbEntity
  8
D-STR-STRn
100
AcDbBlockReference
  2
T-D
 10
7410.0
 20
6280.000000100045
 30
0.0
  0
INSERT
  5
FD51
330
1F
100
AcDbEntity
  8
D-STR-STRn
100
AcDbBlockReference
  2
T-D
 10
7660.0
 20
6780.000000100044
 30
0.0
  0
INSERT
  5
FD52
330
1F
100
AcDbEntity
  8
D-STR-STRn
100
AcDbBlockReference
  2
T-D
 10
7910.0
 20
7280.000000100044
 30
0.0
  0
INSERT
  5
FD53
330
1F
100
AcDbEntity
  8
D-STR-STRn
100
AcDbBlockReference
  2
T-D
 10
8160.0
 20
7780.000000100044
 30
0.0
  0
INSERT
  5
FD54
330
1F
100
AcDbEntity
  8
D-STR-STRn
100
AcDbBlockReference
  2
T-D
 10
8410.0
 20
8280.000000100043
 30
0.0
  0
ENDSEC
  0
SECTION
  2
OBJECTS
  0
DICTIONARY
  5
C
330
0
100
AcDbDictionary
281
     1
  3
ACAD_COLOR
350
1A5
  3
ACAD_GROUP
350
D
  3
ACAD_LAYOUT
350
1A
  3
ACAD_MATERIAL
350
1A4
  3
ACAD_MLINESTYLE
350
17
  3
ACAD_PLOTSETTINGS
350
19
  3
ACAD_PLOTSTYLENAME
350
E
  3
ACAD_TABLESTYLE
350
1A6
  3
AcadDim
350
66
  3
AcDbVariableDictionary
350
1B7
  0
DICTIONARY
  5
1AF
330
2
100
AcDbDictionary
280
     1
281
     1
  3
ACAD_LAYERFILTERS
360
FCDF
  3
ACAD_LAYERSTATES
360
448
  3
ACLYDICTIONARY
360
FCDE
  0
DICTIONARY
  5
A4
330
1F
100
AcDbDictionary
280
     1
281
     1
  3
ACAD_LAYOUTSELFREF
360
19A
  3
ACAD_SORTENTS
360
20F2
  0
DICTIONARY
  5
A6
330
1B
100
AcDbDictionary
280
     1
281
     1
  3
ACAD_LAYOUTSELFREF
360
199
  0
DICTIONARY
  5
1A5
102
{ACAD_REACTORS
330
C
102
}
330
C
100
AcDbDictionary
281
     1
  0
DICTIONARY
  5
D
102
{ACAD_REACTORS
330
C
102
}
330
C
100
AcDbDictionary
281
     1
  0
DICTIONARY
  5
1A
102
{ACAD_REACTORS
330
C
102
}
330
C
100
AcDbDictionary
281
     1
  3
Model
350
22
  3
ﾚｲｱｳﾄ1
350
1E
  0
DICTIONARY
  5
1A4
102
{ACAD_REACTORS
330
C
102
}
330
C
100
AcDbDictionary
281
     1
  3
Global
350
EB42
  0
DICTIONARY
  5
17
102
{ACAD_REACTORS
330
C
102
}
330
C
100
AcDbDictionary
281
     1
  3
Standard
350
18
  0
DICTIONARY
  5
19
102
{ACAD_REACTORS
330
C
102
}
330
C
100
AcDbDictionary
281
     1
  0
ACDBDICTIONARYWDFLT
  5
E
102
{ACAD_REACTORS
330
C
102
}
330
C
100
AcDbDictionary
281
     1
  3
Normal
350
F
100
AcDbDictionaryWithDefault
340
F
  0
DICTIONARY
  5
1A6
102
{ACAD_REACTORS
330
C
102
}
330
C
100
AcDbDictionary
281
     1
  3
Standard
350
1A7
  0
XRECORD
  5
66
102
{ACAD_REACTORS
330
C
102
}
330
C
100
AcDbXrecord
280
     1
 90
   990106
  3

 60
     0
 61
     0
 62
     4
 63
     4
 64
     1
 65
     0
 66
     0
 67
     3
 68
     0
 69
     0
 70
     0
 71
     0
 72
     0
 40
0.0
170
     0
  0
DICTIONARY
  5
1B7
102
{ACAD_REACTORS
330
C
102
}
330
C
100
AcDbDictionary
281
     1
  3
CTABLESTYLE
350
1B8
  3
DIMASSOC
350
4EF4
  3
PROJECTNAME
350
4EF5
  0
DICTIONARY
  5
FCDF
102
{ACAD_REACTORS
330
1AF
102
}
330
1AF
100
AcDbDictionary
281
     1
  0
DICTIONARY
  5
448
102
{ACAD_REACTORS
330
1AF
102
}
330
1AF
100
AcDbDictionary
281
     1
  0
DICTIONARY
  5
FCDE
102
{ACAD_REACTORS
330
1AF
102
}
330
1AF
100
AcDbDictionary
281
     1
1001
ACAD
1000
<All
  0
XRECORD
  5
19A
102
{ACAD_REACTORS
330
A4
102
}
330
A4
100
AcDbXrecord
280
     1
340
1F
  0
SORTENTSTABLE
  5
20F2
102
{ACAD_REACTORS
330
A4
102
}
330
A4
100
AcDbSortentsTable
330
1F
331
F0AD
  5
F0AD
331
F08E
  5
F08E
331
F0CC
  5
F0CC
331
F058
  5
F058
331
F039
  5
F039
331
F01A
  5
F01A
331
EFE4
  5
EFE4
331
EFFB
  5
EFFB
331
EFC5
  5
EFC5
331
EFA6
  5
EFA6
331
EF87
  5
EF87
331
F06F
  5
F06F
331
F1EA
  5
F1EA
331
F1CB
  5
F1CB
331
F209
  5
F209
331
F228
  5
F228
331
F157
  5
F157
331
F176
  5
F176
331
F195
  5
F195
331
F0E3
  5
F0E3
331
F102
  5
F102
331
F121
  5
F121
331
F140
  5
F140
331
F1B4
  5
F1B4
331
F43F
  5
F43F
331
F45E
  5
F45E
331
F47D
  5
F47D
331
F0AE
  5
F0AE
331
F0CD
  5
F0CD
331
F059
  5
F059
331
F070
  5
F070
331
F03A
  5
F03A
331
F01B
  5
F01B
331
EFE5
  5
EFE5
331
EFFC
  5
EFFC
331
EFC6
  5
EFC6
331
EF88
  5
EF88
331
EFA7
  5
EFA7
331
F08F
  5
F08F
331
F240
  5
F240
331
F1EB
  5
F1EB
331
F1CC
  5
F1CC
331
F20A
  5
F20A
331
F229
  5
F229
331
F158
  5
F158
331
F177
  5
F177
331
F196
  5
F196
331
F0E4
  5
F0E4
331
F103
  5
F103
331
F122
  5
F122
331
F141
  5
F141
331
F1B5
  5
F1B5
331
F45F
  5
F45F
331
F47E
  5
F47E
331
F0CE
  5
F0CE
331
F05A
  5
F05A
331
F071
  5
F071
331
F03B
  5
F03B
331
F01C
  5
F01C
331
EFE6
  5
EFE6
331
EFFD
  5
EFFD
331
EFC7
  5
EFC7
331
EFA8
  5
EFA8
331
EF89
  5
EF89
331
F090
  5
F090
331
F0AF
  5
F0AF
331
F260
  5
F260
331
F241
  5
F241
331
F1EC
  5
F1EC
331
F1CD
  5
F1CD
331
F20B
  5
F20B
331
F22A
  5
F22A
331
F159
  5
F159
331
F178
  5
F178
331
F197
  5
F197
331
F0E5
  5
F0E5
331
F104
  5
F104
331
F123
  5
F123
331
F142
  5
F142
331
F1B6
  5
F1B6
331
F47F
  5
F47F
331
F0B0
  5
F0B0
331
F0CF
  5
F0CF
331
F05B
  5
F05B
331
F072
  5
F072
331
F03C
  5
F03C
331
F01D
  5
F01D
331
EFE7
  5
EFE7
331
EFFE
  5
EFFE
331
EFC8
  5
EFC8
331
EFA9
  5
EFA9
331
EF8A
  5
EF8A
331
F091
  5
F091
331
F261
  5
F261
331
F242
  5
F242
331
F280
  5
F280
331
F1ED
  5
F1ED
331
F1CE
  5
F1CE
331
F20C
  5
F20C
331
F22B
  5
F22B
331
F15A
  5
F15A
331
F179
  5
F179
331
F198
  5
F198
331
F0E6
  5
F0E6
331
F105
  5
F105
331
F124
  5
F124
331
F143
  5
F143
331
F1B7
  5
F1B7
331
F0B1
  5
F0B1
331
F0D0
  5
F0D0
331
F05C
  5
F05C
331
F073
  5
F073
331
F03D
  5
F03D
331
F01E
  5
F01E
331
EFC9
  5
EFC9
331
EFAA
  5
EFAA
331
EF8B
  5
EF8B
331
EFFF
  5
EFFF
331
F092
  5
F092
331
F262
  5
F262
331
F243
  5
F243
331
F281
  5
F281
331
F1EE
  5
F1EE
331
F1CF
  5
F1CF
331
F20D
  5
F20D
331
F22C
  5
F22C
331
F15B
  5
F15B
331
F17A
  5
F17A
331
F199
  5
F199
331
F0E7
  5
F0E7
331
F106
  5
F106
331
F125
  5
F125
331
F144
  5
F144
331
F1B8
  5
F1B8
331
F2A0
  5
F2A0
331
F0B2
  5
F0B2
331
F0D1
  5
F0D1
331
F05D
  5
F05D
331
F074
  5
F074
331
F03E
  5
F03E
331
F000
  5
F000
331
EFCA
  5
EFCA
331
EFAB
  5
EFAB
331
EF8C
  5
EF8C
331
F01F
  5
F01F
331
F093
  5
F093
331
F263
  5
F263
331
F244
  5
F244
331
F282
  5
F282
331
F1D0
  5
F1D0
331
F1EF
  5
F1EF
331
F20E
  5
F20E
331
F22D
  5
F22D
331
F15C
  5
F15C
331
F17B
  5
F17B
331
F19A
  5
F19A
331
F0E8
  5
F0E8
331
F107
  5
F107
331
F126
  5
F126
331
F145
  5
F145
331
F1B9
  5
F1B9
331
F2A1
  5
F2A1
331
F0B3
  5
F0B3
331
F0D2
  5
F0D2
331
F05E
  5
F05E
331
F075
  5
F075
331
F03F
  5
F03F
331
F020
  5
F020
331
F001
  5
F001
331
EFCB
  5
EFCB
331
EFAC
  5
EFAC
331
EF8D
  5
EF8D
331
F094
  5
F094
331
F264
  5
F264
331
F245
  5
F245
331
F283
  5
F283
331
F1F0
  5
F1F0
331
F1D1
  5
F1D1
331
F20F
  5
F20F
331
F15D
  5
F15D
331
F17C
  5
F17C
331
F19B
  5
F19B
331
F0E9
  5
F0E9
331
F108
  5
F108
331
F127
  5
F127
331
F146
  5
F146
331
F1BA
  5
F1BA
331
F22E
  5
F22E
331
F2A2
  5
F2A2
331
F0D3
  5
F0D3
331
F05F
  5
F05F
331
EFCC
  5
EFCC
331
EFAD
  5
EFAD
331
EF8E
  5
EF8E
331
F002
  5
F002
331
F021
  5
F021
331
F040
  5
F040
331
F076
  5
F076
331
F095
  5
F095
331
F0B4
  5
F0B4
331
F265
  5
F265
331
F246
  5
F246
331
F284
  5
F284
331
F1F1
  5
F1F1
331
F1D2
  5
F1D2
331
F210
  5
F210
331
F22F
  5
F22F
331
F15E
  5
F15E
331
F17D
  5
F17D
331
F19C
  5
F19C
331
F1BB
  5
F1BB
331
F0EA
  5
F0EA
331
F109
  5
F109
331
F128
  5
F128
331
F147
  5
F147
331
F2A3
  5
F2A3
331
F0D4
  5
F0D4
331
EFCD
  5
EFCD
331
EFAE
  5
EFAE
331
EF8F
  5
EF8F
331
F003
  5
F003
331
F022
  5
F022
331
F041
  5
F041
331
F077
  5
F077
331
F096
  5
F096
331
F0B5
  5
F0B5
331
F266
  5
F266
331
F247
  5
F247
331
F285
  5
F285
331
F230
  5
F230
331
F2A4
  5
F2A4
331
F1F2
  5
F1F2
331
F1BC
  5
F1BC
331
F148
  5
F148
331
F0EB
  5
F0EB
331
F10A
  5
F10A
331
F129
  5
F129
331
F15F
  5
F15F
331
F17E
  5
F17E
331
F19D
  5
F19D
331
F1D3
  5
F1D3
331
F211
  5
F211
331
F0D5
  5
F0D5
331
EFCE
  5
EFCE
331
EFAF
  5
EFAF
331
F004
  5
F004
331
F023
  5
F023
331
F042
  5
F042
331
F078
  5
F078
331
F097
  5
F097
331
F0B6
  5
F0B6
331
F267
  5
F267
331
F286
  5
F286
331
F2A5
  5
F2A5
331
F231
  5
F231
331
F248
  5
F248
331
F1F3
  5
F1F3
331
F1BD
  5
F1BD
331
F149
  5
F149
331
F0EC
  5
F0EC
331
F10B
  5
F10B
331
F12A
  5
F12A
331
F160
  5
F160
331
F17F
  5
F17F
331
F19E
  5
F19E
331
F1D4
  5
F1D4
331
F212
  5
F212
331
F0D6
  5
F0D6
331
EFCF
  5
EFCF
331
F005
  5
F005
331
F024
  5
F024
331
F043
  5
F043
331
F079
  5
F079
331
F098
  5
F098
331
F0B7
  5
F0B7
331
F287
  5
F287
331
F2A6
  5
F2A6
331
F268
  5
F268
331
F232
  5
F232
331
F249
  5
F249
331
F1F4
  5
F1F4
331
F1BE
  5
F1BE
331
F14A
  5
F14A
331
F0ED
  5
F0ED
331
F10C
  5
F10C
331
F12B
  5
F12B
331
F161
  5
F161
331
F180
  5
F180
331
F19F
  5
F19F
331
F1D5
  5
F1D5
331
F213
  5
F213
331
F0D7
  5
F0D7
331
F006
  5
F006
331
F025
  5
F025
331
F044
  5
F044
331
F07A
  5
F07A
331
F099
  5
F099
331
F0B8
  5
F0B8
331
F2A7
  5
F2A7
331
F288
  5
F288
331
F269
  5
F269
331
F233
  5
F233
331
F24A
  5
F24A
331
F1F5
  5
F1F5
331
F1BF
  5
F1BF
331
F14B
  5
F14B
331
F0EE
  5
F0EE
331
F10D
  5
F10D
331
F12C
  5
F12C
331
F162
  5
F162
331
F181
  5
F181
331
F1A0
  5
F1A0
331
F1D6
  5
F1D6
331
F214
  5
F214
331
F007
  5
F007
331
F026
  5
F026
331
F045
  5
F045
331
F07B
  5
F07B
331
F09A
  5
F09A
331
F0B9
  5
F0B9
331
F2A8
  5
F2A8
331
F289
  5
F289
331
F26A
  5
F26A
331
F234
  5
F234
331
F24B
  5
F24B
331
F1F6
  5
F1F6
331
F1C0
  5
F1C0
331
F14C
  5
F14C
331
F0EF
  5
F0EF
331
F10E
  5
F10E
331
F12D
  5
F12D
331
F163
  5
F163
331
F182
  5
F182
331
F1A1
  5
F1A1
331
F1D7
  5
F1D7
331
F215
  5
F215
331
F027
  5
F027
331
F046
  5
F046
331
F07C
  5
F07C
331
F09B
  5
F09B
331
F0BA
  5
F0BA
331
F2A9
  5
F2A9
331
F28A
  5
F28A
331
F26B
  5
F26B
331
F235
  5
F235
331
F24C
  5
F24C
331
F1F7
  5
F1F7
331
F1C1
  5
F1C1
331
F14D
  5
F14D
331
F0F0
  5
F0F0
331
F10F
  5
F10F
331
F12E
  5
F12E
331
F164
  5
F164
331
F183
  5
F183
331
F1A2
  5
F1A2
331
F1D8
  5
F1D8
331
F216
  5
F216
331
F047
  5
F047
331
F07D
  5
F07D
331
F09C
  5
F09C
331
F0BB
  5
F0BB
331
F2AA
  5
F2AA
331
F28B
  5
F28B
331
F26C
  5
F26C
331
F236
  5
F236
331
F24D
  5
F24D
331
F217
  5
F217
331
F1C2
  5
F1C2
331
F14E
  5
F14E
331
F0F1
  5
F0F1
331
F110
  5
F110
331
F12F
  5
F12F
331
F165
  5
F165
331
F184
  5
F184
331
F1A3
  5
F1A3
331
F1D9
  5
F1D9
331
F1F8
  5
F1F8
331
F07E
  5
F07E
331
F09D
  5
F09D
331
F0BC
  5
F0BC
331
F2AB
  5
F2AB
331
F28C
  5
F28C
331
F26D
  5
F26D
331
F237
  5
F237
331
F24E
  5
F24E
331
F1C3
  5
F1C3
331
F14F
  5
F14F
331
F130
  5
F130
331
F0F2
  5
F0F2
331
F111
  5
F111
331
F166
  5
F166
331
F185
  5
F185
331
F1A4
  5
F1A4
331
F1DA
  5
F1DA
331
F1F9
  5
F1F9
331
F218
  5
F218
331
F07F
  5
F07F
331
F09E
  5
F09E
331
F0BD
  5
F0BD
331
F2AC
  5
F2AC
331
F28D
  5
F28D
331
F26E
  5
F26E
331
F238
  5
F238
331
F24F
  5
F24F
331
F219
  5
F219
331
F1C4
  5
F1C4
331
F1A5
  5
F1A5
331
F131
  5
F131
331
F0F3
  5
F0F3
331
F112
  5
F112
331
F167
  5
F167
331
F186
  5
F186
331
F1DB
  5
F1DB
331
F1FA
  5
F1FA
331
F09F
  5
F09F
331
F0BE
  5
F0BE
331
F2AD
  5
F2AD
331
F28E
  5
F28E
331
F26F
  5
F26F
331
F239
  5
F239
331
F250
  5
F250
331
F21A
  5
F21A
331
F1C5
  5
F1C5
331
F1A6
  5
F1A6
331
F168
  5
F168
331
F132
  5
F132
331
F0F4
  5
F0F4
331
F113
  5
F113
331
F187
  5
F187
331
F1DC
  5
F1DC
331
F1FB
  5
F1FB
331
F0BF
  5
F0BF
331
F2AE
  5
F2AE
331
F28F
  5
F28F
331
F23A
  5
F23A
331
F251
  5
F251
331
F21B
  5
F21B
331
F1C6
  5
F1C6
331
F1A7
  5
F1A7
331
F169
  5
F169
331
F133
  5
F133
331
F0F5
  5
F0F5
331
F114
  5
F114
331
F188
  5
F188
331
F1DD
  5
F1DD
331
F1FC
  5
F1FC
331
F270
  5
F270
331
F2AF
  5
F2AF
331
F290
  5
F290
331
F23B
  5
F23B
331
F252
  5
F252
331
F21C
  5
F21C
331
F1C7
  5
F1C7
331
F1A8
  5
F1A8
331
F16A
  5
F16A
331
F134
  5
F134
331
F0F6
  5
F0F6
331
F115
  5
F115
331
F189
  5
F189
331
F1DE
  5
F1DE
331
F1FD
  5
F1FD
331
F271
  5
F271
331
F2B0
  5
F2B0
331
F291
  5
F291
331
F23C
  5
F23C
331
F253
  5
F253
331
F21D
  5
F21D
331
F1A9
  5
F1A9
331
F135
  5
F135
331
F0F7
  5
F0F7
331
F116
  5
F116
331
F16B
  5
F16B
331
F18A
  5
F18A
331
F1DF
  5
F1DF
331
F1FE
  5
F1FE
331
F272
  5
F272
331
F498
  5
F498
331
F2B8
  5
F2B8
331
F2B1
  5
F2B1
331
F292
  5
F292
331
F23D
  5
F23D
331
F254
  5
F254
331
F21E
  5
F21E
331
F1E0
  5
F1E0
331
F1AA
  5
F1AA
331
F136
  5
F136
331
F117
  5
F117
331
F16C
  5
F16C
331
F18B
  5
F18B
331
F1FF
  5
F1FF
331
F273
  5
F273
331
F499
  5
F499
331
F4E0
  5
F4E0
331
F2D8
  5
F2D8
331
F2B9
  5
F2B9
331
F2B2
  5
F2B2
331
F293
  5
F293
331
F274
  5
F274
331
F23E
  5
F23E
331
F255
  5
F255
331
F21F
  5
F21F
331
F200
  5
F200
331
F1E1
  5
F1E1
331
F1AB
  5
F1AB
331
F18C
  5
F18C
331
F137
  5
F137
331
F16D
  5
F16D
331
F500
  5
F500
331
F49A
  5
F49A
331
F4E1
  5
F4E1
331
F2D9
  5
F2D9
331
F2BA
  5
F2BA
331
F2F8
  5
F2F8
331
F2B3
  5
F2B3
331
F294
  5
F294
331
F275
  5
F275
331
F23F
  5
F23F
331
F256
  5
F256
331
F220
  5
F220
331
F201
  5
F201
331
F1E2
  5
F1E2
331
F1AC
  5
F1AC
331
F18D
  5
F18D
331
F16E
  5
F16E
331
F520
  5
F520
331
F501
  5
F501
331
F49B
  5
F49B
331
F4E2
  5
F4E2
331
F2DA
  5
F2DA
331
F2BB
  5
F2BB
331
F2F9
  5
F2F9
331
F2B4
  5
F2B4
331
F295
  5
F295
331
F276
  5
F276
331
F221
  5
F221
331
F202
  5
F202
331
F1E3
  5
F1E3
331
F1AD
  5
F1AD
331
F18E
  5
F18E
331
F16F
  5
F16F
331
F257
  5
F257
331
F318
  5
F318
331
F521
  5
F521
331
F538
  5
F538
331
F502
  5
F502
331
F49C
  5
F49C
331
F4E3
  5
F4E3
331
F330
  5
F330
331
F2DB
  5
F2DB
331
F2BC
  5
F2BC
331
F2FA
  5
F2FA
331
F2B5
  5
F2B5
331
F296
  5
F296
331
F258
  5
F258
331
F222
  5
F222
331
F203
  5
F203
331
F1E4
  5
F1E4
331
F1AE
  5
F1AE
331
F18F
  5
F18F
331
F277
  5
F277
331
F319
  5
F319
331
F522
  5
F522
331
F503
  5
F503
331
F49D
  5
F49D
331
F4E4
  5
F4E4
331
F539
  5
F539
331
F558
  5
F55A
331
F331
  5
F331
331
F350
  5
F350
331
F2DC
  5
F2DC
331
F2BD
  5
F2BD
331
F2FB
  5
F2FB
331
F2B6
  5
F2B6
331
F278
  5
F278
331
F259
  5
F259
331
F223
  5
F223
331
F204
  5
F204
331
F1E5
  5
F1E5
331
F1AF
  5
F1AF
331
F297
  5
F297
331
F31A
  5
F31A
331
F578
  5
F57A
331
F523
  5
F523
331
F504
  5
F504
331
F4E5
  5
F4E5
331
F53A
  5
F53A
331
F332
  5
F332
331
F351
  5
F351
331
F370
  5
F370
331
F2DD
  5
F2DD
331
F2BE
  5
F2BE
331
F2FC
  5
F2FC
331
F2B7
  5
F2B7
331
F279
  5
F279
331
F25A
  5
F25A
331
F224
  5
F224
331
F205
  5
F205
331
F1E6
  5
F1E6
331
F298
  5
F298
331
F31B
  5
F31B
331
F5A0
  5
F5A2
331
F579
  5
F57B
331
F524
  5
F524
331
F505
  5
F505
331
F4E6
  5
F4E6
331
F53B
  5
F53B
331
F55A
  5
F55C
331
F333
  5
F333
331
F352
  5
F352
331
F371
  5
F371
331
F2DE
  5
F2DE
331
F2BF
  5
F2BF
331
F2FD
  5
F2FD
331
F27A
  5
F27A
331
F25B
  5
F25B
331
F225
  5
F225
331
F206
  5
F206
331
F1E7
  5
F1E7
331
F299
  5
F299
331
F31C
  5
F31C
331
F390
  5
F390
331
F5A1
  5
F5A3
331
F57A
  5
F57C
331
F525
  5
F525
331
F506
  5
F506
331
F4A0
  5
F4A0
331
F4E7
  5
F4E7
331
F53C
  5
F53C
331
F3A8
  5
F3A8
331
F334
  5
F334
331
F353
  5
F353
331
F372
  5
F372
331
F2DF
  5
F2DF
331
F2FE
  5
F2FE
331
F31D
  5
F31D
331
F391
  5
F391
331
F27B
  5
F27B
331
F25C
  5
F25C
331
F226
  5
F226
331
F207
  5
F207
331
F29A
  5
F29A
331
F2C0
  5
F2C0
331
F5A2
  5
F5A4
331
F57B
  5
F57D
331
F526
  5
F526
331
F4E8
  5
F4E8
331
F507
  5
F507
331
F53D
  5
F53D
331
F55C
  5
F55E
331
F3A9
  5
F3A9
331
F3C8
  5
F3C8
331
F335
  5
F335
331
F354
  5
F354
331
F373
  5
F373
331
F2FF
  5
F2FF
331
F31E
  5
F31E
331
F392
  5
F392
331
F2E0
  5
F2E0
331
F25D
  5
F25D
331
F227
  5
F227
331
F27C
  5
F27C
331
F29B
  5
F29B
331
F2C1
  5
F2C1
331
F5A3
  5
F5A5
331
F527
  5
F527
331
F508
  5
F508
331
F4E9
  5
F4E9
331
F53E
  5
F53E
331
F57C
  5
F57E
331
F3C9
  5
F3C9
331
F3AA
  5
F3AA
331
F3E8
  5
F3E8
331
F355
  5
F355
331
F336
  5
F336
331
F374
  5
F374
331
F31F
  5
F31F
331
F393
  5
F393
331
F300
  5
F300
331
F2E1
  5
F2E1
331
F25E
  5
F25E
331
F27D
  5
F27D
331
F29C
  5
F29C
331
F2C2
  5
F2C2
331
F53F
  5
F53F
331
F55E
  5
F560
331
F57D
  5
F57F
331
F509
  5
F509
331
F4EA
  5
F4EA
331
F528
  5
F528
331
F5A4
  5
F5A6
331
F3CA
  5
F3CA
331
F3AB
  5
F3AB
331
F3E9
  5
F3E9
331
F356
  5
F356
331
F337
  5
F337
331
F375
  5
F375
331
F320
  5
F320
331
F394
  5
F394
331
F408
  5
F408
331
F301
  5
F301
331
F2E2
  5
F2E2
331
F25F
  5
F25F
331
F27E
  5
F27E
331
F29D
  5
F29D
331
F2C3
  5
F2C3
331
F5C4
  5
F5C6
331
F540
  5
F540
331
F57E
  5
F580
331
F50A
  5
F50A
331
F529
  5
F529
331
F5A5
  5
F5A7
331
F420
  5
F420
331
F3CB
  5
F3CB
331
F3AC
  5
F3AC
331
F3EA
  5
F3EA
331
F357
  5
F357
331
F376
  5
F376
331
F395
  5
F395
331
F409
  5
F409
331
F321
  5
F321
331
F338
  5
F338
331
F302
  5
F302
331
F2E3
  5
F2E3
331
F27F
  5
F27F
331
F29E
  5
F29E
331
F2C4
  5
F2C4
331
F5C5
  5
F5C7
331
F560
  5
F562
331
F541
  5
F541
331
F50B
  5
F50B
331
F52A
  5
F52A
331
F5A6
  5
F5A8
331
F440
  5
F440
331
F421
  5
F421
331
F3CC
  5
F3CC
331
F3AD
  5
F3AD
331
F3EB
  5
F3EB
331
F377
  5
F377
331
F396
  5
F396
331
F40A
  5
F40A
331
F358
  5
F358
331
F322
  5
F322
331
F339
  5
F339
331
F303
  5
F303
331
F2E4
  5
F2E4
331
F29F
  5
F29F
331
F2C5
  5
F2C5
331
F5C6
  5
F5C8
331
F542
  5
F542
331
F50C
  5
F50C
331
F52B
  5
F52B
331
F5A7
  5
F5A9
331
F441
  5
F441
331
F422
  5
F422
331
F460
  5
F460
331
F3CD
  5
F3CD
331
F3AE
  5
F3AE
331
F3EC
  5
F3EC
331
F397
  5
F397
331
F40B
  5
F40B
331
F378
  5
F378
331
F359
  5
F359
331
F323
  5
F323
331
F33A
  5
F33A
331
F304
  5
F304
331
F2E5
  5
F2E5
331
F2C6
  5
F2C6
331
F5C7
  5
F5C9
331
F589
  5
F58B
331
F562
  5
F564
331
F543
  5
F543
331
F50D
  5
F50D
331
F52C
  5
F52C
331
F5A8
  5
F5AA
331
F480
  5
F480
331
F442
  5
F442
331
F423
  5
F423
331
F461
  5
F461
331
F3CE
  5
F3CE
331
F3AF
  5
F3AF
331
F3ED
  5
F3ED
331
F398
  5
F398
331
F40C
  5
F40C
331
F379
  5
F379
331
F35A
  5
F35A
331
F324
  5
F324
331
F33B
  5
F33B
331
F305
  5
F305
331
F2E6
  5
F2E6
331
F2C7
  5
F2C7
331
F5C8
  5
F5CA
331
F58A
  5
F58C
331
F563
  5
F565
331
F544
  5
F544
331
F50E
  5
F50E
331
F52D
  5
F52D
331
F5A9
  5
F5AB
331
F481
  5
F481
331
F443
  5
F443
331
F424
  5
F424
331
F462
  5
F462
331
F3CF
  5
F3CF
331
F3EE
  5
F3EE
331
F40D
  5
F40D
331
F399
  5
F399
331
F3B0
  5
F3B0
331
F37A
  5
F37A
331
F35B
  5
F35B
331
F325
  5
F325
331
F33C
  5
F33C
331
F306
  5
F306
331
F2C8
  5
F2C8
331
F2E7
  5
F2E7
331
F5C9
  5
F5CB
331
F58B
  5
F58D
331
F564
  5
F566
331
F4F0
  5
F4F0
331
F5AA
  5
F5AC
331
F482
  5
F482
331
F444
  5
F444
331
F425
  5
F425
331
F463
  5
F463
331
F3EF
  5
F3EF
331
F40E
  5
F40E
331
F3D0
  5
F3D0
331
F39A
  5
F39A
331
F3B1
  5
F3B1
331
F37B
  5
F37B
331
F35C
  5
F35C
331
F326
  5
F326
331
F33D
  5
F33D
331
F2E8
  5
F2E8
331
F2C9
  5
F2C9
331
F307
  5
F307
331
F5CA
  5
F5CC
331
F58C
  5
F58E
331
F565
  5
F567
331
F5AB
  5
F5AD
331
F4F1
  5
F4F1
331
F52F
  5
F52F
331
F483
  5
F483
331
F464
  5
F464
331
F445
  5
F445
331
F426
  5
F426
331
F40F
  5
F40F
331
F3F0
  5
F3F0
331
F3D1
  5
F3D1
331
F39B
  5
F39B
331
F3B2
  5
F3B2
331
F37C
  5
F37C
331
F35D
  5
F35D
331
F327
  5
F327
331
F33E
  5
F33E
331
F2E9
  5
F2E9
331
F2CA
  5
F2CA
331
F308
  5
F308
331
F5AC
  5
F5AE
331
F5CB
  5
F5CD
331
F58D
  5
F58F
331
F566
  5
F568
331
F530
  5
F530
331
F511
  5
F511
331
F4F2
  5
F4F2
331
F547
  5
F547
331
F484
  5
F484
331
F465
  5
F465
331
F446
  5
F446
331
F427
  5
F427
331
F410
  5
F410
331
F3F1
  5
F3F1
331
F3D2
  5
F3D2
331
F39C
  5
F39C
331
F3B3
  5
F3B3
331
F37D
  5
F37D
331
F35E
  5
F35E
331
F328
  5
F328
331
F2EA
  5
F2EA
331
F2CB
  5
F2CB
331
F309
  5
F309
331
F33F
  5
F33F
331
EF70
  5
EF70
331
F5AD
  5
F5AF
331
F5CC
  5
F5CE
331
F58E
  5
F590
331
F531
  5
F531
331
F512
  5
F512
331
F4D4
  5
F4D4
331
F4F3
  5
F4F3
331
F548
  5
F548
331
F567
  5
F569
331
F485
  5
F485
331
F466
  5
F466
331
F447
  5
F447
331
F411
  5
F411
331
F428
  5
F428
331
F3F2
  5
F3F2
331
F3D3
  5
F3D3
331
F39D
  5
F39D
331
F3B4
  5
F3B4
331
F37E
  5
F37E
331
F329
  5
F329
331
F340
  5
F340
331
F2EB
  5
F2EB
331
F2CC
  5
F2CC
331
F30A
  5
F30A
331
F35F
  5
F35F
331
EF90
  5
EF90
331
EF71
  5
EF71
331
F5AE
  5
F5B0
331
F5CD
  5
F5CF
331
F532
  5
F532
331
F513
  5
F513
331
F4D5
  5
F4D5
331
F4F4
  5
F4F4
331
F549
  5
F549
331
F568
  5
F56A
331
F58F
  5
F591
331
F486
  5
F486
331
F467
  5
F467
331
F448
  5
F448
331
F412
  5
F412
331
F429
  5
F429
331
F3F3
  5
F3F3
331
F3D4
  5
F3D4
331
F39E
  5
F39E
331
F3B5
  5
F3B5
331
F360
  5
F360
331
F32A
  5
F32A
331
F341
  5
F341
331
F2EC
  5
F2EC
331
F2CD
  5
F2CD
331
F30B
  5
F30B
331
F37F
  5
F37F
331
EFB0
  5
EFB0
331
EF91
  5
EF91
331
EF72
  5
EF72
331
F5AF
  5
F5B1
331
F5CE
  5
F5D0
331
F590
  5
F592
331
F533
  5
F533
331
F514
  5
F514
331
F4D6
  5
F4D6
331
F4F5
  5
F4F5
331
F54A
  5
F54A
331
F569
  5
F56B
331
F487
  5
F487
331
F449
  5
F449
331
F413
  5
F413
331
F42A
  5
F42A
331
F3F4
  5
F3F4
331
F3D5
  5
F3D5
331
F39F
  5
F39F
331
F3B6
  5
F3B6
331
F361
  5
F361
331
F32B
  5
F32B
331
F342
  5
F342
331
F2ED
  5
F2ED
331
F2CE
  5
F2CE
331
F30C
  5
F30C
331
F380
  5
F380
331
F468
  5
F468
331
EFD0
  5
EFD0
331
EFB1
  5
EFB1
331
EF92
  5
EF92
331
EF73
  5
EF73
331
F5B0
  5
F5B2
331
F591
  5
F593
331
F534
  5
F534
331
F515
  5
F515
331
F4D7
  5
F4D7
331
F4F6
  5
F4F6
331
F54B
  5
F54B
331
F56A
  5
F56C
331
F5CF
  5
F5D1
331
F488
  5
F488
331
F44A
  5
F44A
331
F414
  5
F414
331
F42B
  5
F42B
331
F3F5
  5
F3F5
331
F3D6
  5
F3D6
331
F3A0
  5
F3A0
331
F362
  5
F362
331
F32C
  5
F32C
331
F343
  5
F343
331
F2EE
  5
F2EE
331
F2CF
  5
F2CF
331
F30D
  5
F30D
331
F381
  5
F381
331
F3B7
  5
F3B7
331
F469
  5
F469
331
EFD1
  5
EFD1
331
EFB2
  5
EFB2
331
EF93
  5
EF93
331
EF74
  5
EF74
331
EFE8
  5
EFE8
331
F5B1
  5
F5B3
331
F592
  5
F594
331
F535
  5
F535
331
F4D8
  5
F4D8
331
F4F7
  5
F4F7
331
F56B
  5
F56D
331
F5D0
  5
F5D2
331
F489
  5
F489
331
F44B
  5
F44B
331
F415
  5
F415
331
F42C
  5
F42C
331
F3F6
  5
F3F6
331
F3A1
  5
F3A1
331
F3B8
  5
F3B8
331
F363
  5
F363
331
F32D
  5
F32D
331
F344
  5
F344
331
F2EF
  5
F2EF
331
F2D0
  5
F2D0
331
F30E
  5
F30E
331
F382
  5
F382
331
F3D7
  5
F3D7
331
F46A
  5
F46A
331
EFD2
  5
EFD2
331
EFB3
  5
EFB3
331
EF94
  5
EF94
331
EF75
  5
EF75
331
EFE9
  5
EFE9
331
F008
  5
F008
331
F593
  5
F595
331
F536
  5
F536
331
F517
  5
F517
331
F4D9
  5
F4D9
331
F4F8
  5
F4F8
331
F56C
  5
F56E
331
F5D1
  5
F5D3
331
F48A
  5
F48A
331
F44C
  5
F44C
331
F416
  5
F416
331
F42D
  5
F42D
331
F3D8
  5
F3D8
331
F3A2
  5
F3A2
331
F3B9
  5
F3B9
331
F364
  5
F364
331
F32E
  5
F32E
331
F345
  5
F345
331
F30F
  5
F30F
331
F2D1
  5
F2D1
331
F2F0
  5
F2F0
331
F383
  5
F383
331
F3F7
  5
F3F7
331
F46B
  5
F46B
331
EFD3
  5
EFD3
331
EFB4
  5
EFB4
331
EF95
  5
EF95
331
EF76
  5
EF76
331
EFEA
  5
EFEA
331
F009
  5
F009
331
F028
  5
F028
331
F537
  5
F537
331
F4DA
  5
F4DA
331
F4F9
  5
F4F9
331
F518
  5
F518
331
F56D
  5
F56F
331
F594
  5
F596
331
F5D2
  5
F5D4
331
F48B
  5
F48B
331
F46C
  5
F46C
331
F44D
  5
F44D
331
F417
  5
F417
331
F42E
  5
F42E
331
F3D9
  5
F3D9
331
F3A3
  5
F3A3
331
F3BA
  5
F3BA
331
F365
  5
F365
331
F32F
  5
F32F
331
F346
  5
F346
331
F310
  5
F310
331
F2D2
  5
F2D2
331
F2F1
  5
F2F1
331
F384
  5
F384
331
F3F8
  5
F3F8
331
F048
  5
F048
331
EFD4
  5
EFD4
331
EFB5
  5
EFB5
331
EF96
  5
EF96
331
EF77
  5
EF77
331
EFEB
  5
EFEB
331
F00A
  5
F00A
331
F029
  5
F029
331
F4DB
  5
F4DB
331
F4FA
  5
F4FA
331
F519
  5
F519
331
F56E
  5
F570
331
F595
  5
F597
331
F5D3
  5
F5D5
331
F46D
  5
F46D
331
F44E
  5
F44E
331
F418
  5
F418
331
F42F
  5
F42F
331
F3DA
  5
F3DA
331
F3A4
  5
F3A4
331
F3BB
  5
F3BB
331
F366
  5
F366
331
F347
  5
F347
331
F311
  5
F311
331
F2D3
  5
F2D3
331
F2F2
  5
F2F2
331
F385
  5
F385
331
F3F9
  5
F3F9
331
F48C
  5
F48C
331
F049
  5
F049
331
EFD5
  5
EFD5
331
EFB6
  5
EFB6
331
EF61
  5
EF61
331
EF78
  5
EF78
331
EF97
  5
EF97
331
EFEC
  5
EFEC
331
F00B
  5
F00B
331
F02A
  5
F02A
331
F060
  5
F060
331
F4DC
  5
F4DC
331
F4FB
  5
F4FB
331
F56F
  5
F571
331
F596
  5
F598
331
F5D4
  5
F5D6
331
F46E
  5
F46E
331
F44F
  5
F44F
331
F419
  5
F419
331
F430
  5
F430
331
F3DB
  5
F3DB
331
F3A5
  5
F3A5
331
F3BC
  5
F3BC
331
F367
  5
F367
331
F312
  5
F312
331
F2D4
  5
F2D4
331
F2F3
  5
F2F3
331
F348
  5
F348
331
F386
  5
F386
331
F3FA
  5
F3FA
331
F48D
  5
F48D
331
F04A
  5
F04A
331
EFD6
  5
EFD6
331
EF98
  5
EF98
331
EF62
  5
EF62
331
EF79
  5
EF79
331
EFB7
  5
EFB7
331
EFED
  5
EFED
331
F00C
  5
F00C
331
F02B
  5
F02B
331
F061
  5
F061
331
F080
  5
F080
331
F4DD
  5
F4DD
331
F4FC
  5
F4FC
331
F570
  5
F572
331
F597
  5
F599
331
F5D5
  5
F7F7
331
F46F
  5
F46F
331
F450
  5
F450
331
F41A
  5
F41A
331
F431
  5
F431
331
F3DC
  5
F3DC
331
F3A6
  5
F3A6
331
F3BD
  5
F3BD
331
F387
  5
F387
331
F313
  5
F313
331
F2D5
  5
F2D5
331
F2F4
  5
F2F4
331
F349
  5
F349
331
F368
  5
F368
331
F3FB
  5
F3FB
331
F48E
  5
F48E
331
F04B
  5
F04B
331
EFD7
  5
EFD7
331
EFB8
  5
EFB8
331
EF99
  5
EF99
331
EF63
  5
EF63
331
EF7A
  5
EF7A
331
EFEE
  5
EFEE
331
F00D
  5
F00D
331
F02C
  5
F02C
331
F062
  5
F062
331
F081
  5
F081
331
F0A0
  5
F0A0
331
F4DE
  5
F4DE
331
F4FD
  5
F4FD
331
F571
  5
F573
331
F598
  5
F59A
331
F5D6
  5
F7F8
331
F470
  5
F470
331
F451
  5
F451
331
F41B
  5
F41B
331
F432
  5
F432
331
F3DD
  5
F3DD
331
F3A7
  5
F3A7
331
F3BE
  5
F3BE
331
F388
  5
F388
331
F314
  5
F314
331
F2D6
  5
F2D6
331
F2F5
  5
F2F5
331
F34A
  5
F34A
331
F369
  5
F369
331
F3FC
  5
F3FC
331
F48F
  5
F48F
331
F0C0
  5
F0C0
331
F04C
  5
F04C
331
EFD8
  5
EFD8
331
EFB9
  5
EFB9
331
EF9A
  5
EF9A
331
EF64
  5
EF64
331
EF7B
  5
EF7B
331
EFEF
  5
EFEF
331
F00E
  5
F00E
331
F02D
  5
F02D
331
F063
  5
F063
331
F082
  5
F082
331
F0A1
  5
F0A1
331
F4DF
  5
F4DF
331
F4FE
  5
F4FE
331
F553
  5
F553
331
F599
  5
F59B
331
F471
  5
F471
331
F452
  5
F452
331
F41C
  5
F41C
331
F433
  5
F433
331
F3DE
  5
F3DE
331
F3BF
  5
F3BF
331
F389
  5
F389
331
F315
  5
F315
331
F2D7
  5
F2D7
331
F2F6
  5
F2F6
331
F34B
  5
F34B
331
F36A
  5
F36A
331
F3FD
  5
F3FD
331
F490
  5
F490
331
F0C1
  5
F0C1
331
F04D
  5
F04D
331
EFD9
  5
EFD9
331
EFF0
  5
EFF0
331
EFBA
  5
EFBA
331
EF9B
  5
EF9B
331
EF65
  5
EF65
331
EF7C
  5
EF7C
331
F00F
  5
F00F
331
F02E
  5
F02E
331
F064
  5
F064
331
F083
  5
F083
331
F0A2
  5
F0A2
331
F4FF
  5
F4FF
331
F554
  5
F555
331
F59A
  5
F59C
331
F0D8
  5
F0D8
331
F472
  5
F472
331
F453
  5
F453
331
F41D
  5
F41D
331
F434
  5
F434
331
F3DF
  5
F3DF
331
F38A
  5
F38A
331
F316
  5
F316
331
F2F7
  5
F2F7
331
F34C
  5
F34C
331
F36B
  5
F36B
331
F3C0
  5
F3C0
331
F3FE
  5
F3FE
331
F491
  5
F491
331
F0C2
  5
F0C2
331
F04E
  5
F04E
331
F010
  5
F010
331
EFDA
  5
EFDA
331
EFF1
  5
EFF1
331
EFBB
  5
EFBB
331
EF9C
  5
EF9C
331
EF66
  5
EF66
331
EF7D
  5
EF7D
331
F02F
  5
F02F
331
F065
  5
F065
331
F084
  5
F084
331
F0A3
  5
F0A3
331
F51F
  5
F51F
331
F555
  5
F556
331
F59B
  5
F59D
331
F0D9
  5
F0D9
331
F0F8
  5
F0F8
331
F473
  5
F473
331
F454
  5
F454
331
F41E
  5
F41E
331
F435
  5
F435
331
F3FF
  5
F3FF
331
F38B
  5
F38B
331
F317
  5
F317
331
F34D
  5
F34D
331
F36C
  5
F36C
331
F3C1
  5
F3C1
331
F3E0
  5
F3E0
331
F492
  5
F492
331
F0C3
  5
F0C3
331
F04F
  5
F04F
331
F030
  5
F030
331
F011
  5
F011
331
EFDB
  5
EFDB
331
EFF2
  5
EFF2
331
EFBC
  5
EFBC
331
EF9D
  5
EF9D
331
EF67
  5
EF67
331
EF7E
  5
EF7E
331
F066
  5
F066
331
F085
  5
F085
331
F0A4
  5
F0A4
331
F59C
  5
F59E
331
F0DA
  5
F0DA
331
F0F9
  5
F0F9
331
F118
  5
F118
331
F474
  5
F474
331
F455
  5
F455
331
F41F
  5
F41F
331
F436
  5
F436
331
F400
  5
F400
331
F38C
  5
F38C
331
F34E
  5
F34E
331
F36D
  5
F36D
331
F3C2
  5
F3C2
331
F3E1
  5
F3E1
331
F493
  5
F493
331
F0C4
  5
F0C4
331
F067
  5
F067
331
F086
  5
F086
331
F0A5
  5
F0A5
331
F031
  5
F031
331
F012
  5
F012
331
EFF3
  5
EFF3
331
EFBD
  5
EFBD
331
EF9E
  5
EF9E
331
EF7F
  5
EF7F
331
F59D
  5
F59F
331
F557
  5
F559
331
EF68
  5
EF68
331
EFDC
  5
EFDC
331
F050
  5
F050
331
F138
  5
F138
331
F0DB
  5
F0DB
331
F0FA
  5
F0FA
331
F119
  5
F119
331
F475
  5
F475
331
F456
  5
F456
331
F437
  5
F437
331
F401
  5
F401
331
F38D
  5
F38D
331
F34F
  5
F34F
331
F36E
  5
F36E
331
F3C3
  5
F3C3
331
F3E2
  5
F3E2
331
F494
  5
F494
331
F0C5
  5
F0C5
331
F068
  5
F068
331
F087
  5
F087
331
F0A6
  5
F0A6
331
F032
  5
F032
331
F013
  5
F013
331
EFF4
  5
EFF4
331
EFBE
  5
EFBE
331
EF9F
  5
EF9F
331
EF80
  5
EF80
331
F59E
  5
F5A0
331
EF69
  5
EF69
331
EFDD
  5
EFDD
331
F051
  5
F051
331
F139
  5
F139
331
F0DC
  5
F0DC
331
F0FB
  5
F0FB
331
F11A
  5
F11A
331
F150
  5
F150
331
F476
  5
F476
331
F457
  5
F457
331
F402
  5
F402
331
F38E
  5
F38E
331
F36F
  5
F36F
331
F3C4
  5
F3C4
331
F3E3
  5
F3E3
331
F438
  5
F438
331
F495
  5
F495
331
F0C6
  5
F0C6
331
F088
  5
F088
331
F069
  5
F069
331
F0A7
  5
F0A7
331
F033
  5
F033
331
F014
  5
F014
331
EFF5
  5
EFF5
331
EFBF
  5
EFBF
331
EFA0
  5
EFA0
331
EF81
  5
EF81
331
F59F
  5
F5A1
331
EF6A
  5
EF6A
331
EFDE
  5
EFDE
331
F052
  5
F052
331
F13A
  5
F13A
331
F0DD
  5
F0DD
331
F0FC
  5
F0FC
331
F11B
  5
F11B
331
F151
  5
F151
331
F170
  5
F170
331
F477
  5
F477
331
F403
  5
F403
331
F38F
  5
F38F
331
F3C5
  5
F3C5
331
F3E4
  5
F3E4
331
F439
  5
F439
331
F458
  5
F458
331
F496
  5
F496
331
F0A8
  5
F0A8
331
F089
  5
F089
331
F06A
  5
F06A
331
F0C7
  5
F0C7
331
F034
  5
F034
331
F015
  5
F015
331
EFF6
  5
EFF6
331
EFC0
  5
EFC0
331
EFA1
  5
EFA1
331
EF82
  5
EF82
331
EF6B
  5
EF6B
331
EFDF
  5
EFDF
331
F053
  5
F053
331
F13B
  5
F13B
331
F0DE
  5
F0DE
331
F0FD
  5
F0FD
331
F11C
  5
F11C
331
F152
  5
F152
331
F171
  5
F171
331
F190
  5
F190
331
F478
  5
F478
331
F404
  5
F404
331
F3C6
  5
F3C6
331
F3E5
  5
F3E5
331
F43A
  5
F43A
331
F459
  5
F459
331
F497
  5
F497
331
F0A9
  5
F0A9
331
F08A
  5
F08A
331
F06B
  5
F06B
331
F0C8
  5
F0C8
331
F035
  5
F035
331
F016
  5
F016
331
EFF7
  5
EFF7
331
EFC1
  5
EFC1
331
EFA2
  5
EFA2
331
EF83
  5
EF83
331
EFE0
  5
EFE0
331
EF6C
  5
EF6C
331
F054
  5
F054
331
F1B0
  5
F1B0
331
F13C
  5
F13C
331
F0DF
  5
F0DF
331
F0FE
  5
F0FE
331
F11D
  5
F11D
331
F153
  5
F153
331
F172
  5
F172
331
F191
  5
F191
331
F479
  5
F479
331
F405
  5
F405
331
F3C7
  5
F3C7
331
F3E6
  5
F3E6
331
F43B
  5
F43B
331
F45A
  5
F45A
331
F0AA
  5
F0AA
331
F08B
  5
F08B
331
F06C
  5
F06C
331
F0C9
  5
F0C9
331
F036
  5
F036
331
F017
  5
F017
331
EFF8
  5
EFF8
331
EFC2
  5
EFC2
331
EFA3
  5
EFA3
331
EF84
  5
EF84
331
EFE1
  5
EFE1
331
EF6D
  5
EF6D
331
F055
  5
F055
331
F1B1
  5
F1B1
331
F13D
  5
F13D
331
F0E0
  5
F0E0
331
F0FF
  5
F0FF
331
F11E
  5
F11E
331
F154
  5
F154
331
F173
  5
F173
331
F192
  5
F192
331
F1C8
  5
F1C8
331
F47A
  5
F47A
331
F406
  5
F406
331
F3E7
  5
F3E7
331
F43C
  5
F43C
331
F45B
  5
F45B
331
F0AB
  5
F0AB
331
F08C
  5
F08C
331
F06D
  5
F06D
331
F0CA
  5
F0CA
331
F037
  5
F037
331
F018
  5
F018
331
EFF9
  5
EFF9
331
EFC3
  5
EFC3
331
EFA4
  5
EFA4
331
EF85
  5
EF85
331
EFE2
  5
EFE2
331
EF6E
  5
EF6E
331
F056
  5
F056
331
F1E8
  5
F1E8
331
F1B2
  5
F1B2
331
F13E
  5
F13E
331
F0E1
  5
F0E1
331
F100
  5
F100
331
F11F
  5
F11F
331
F155
  5
F155
331
F174
  5
F174
331
F193
  5
F193
331
F1C9
  5
F1C9
331
F47B
  5
F47B
331
F43D
  5
F43D
331
F407
  5
F407
331
F45C
  5
F45C
331
F0AC
  5
F0AC
331
F08D
  5
F08D
331
F06E
  5
F06E
331
F0CB
  5
F0CB
331
F038
  5
F038
331
F019
  5
F019
331
EFFA
  5
EFFA
331
EFC4
  5
EFC4
331
EFA5
  5
EFA5
331
EF86
  5
EF86
331
EF6F
  5
EF6F
331
EFE3
  5
EFE3
331
F057
  5
F057
331
F1E9
  5
F1E9
331
F1B3
  5
F1B3
331
F13F
  5
F13F
331
F0E2
  5
F0E2
331
F101
  5
F101
331
F120
  5
F120
331
F156
  5
F156
331
F175
  5
F175
331
F194
  5
F194
331
F1CA
  5
F1CA
331
F208
  5
F208
331
F43E
  5
F43E
331
F45D
  5
F45D
331
F47C
  5
F47C
  0
XRECORD
  5
199
102
{ACAD_REACTORS
330
A6
102
}
330
A6
100
AcDbXrecord
280
     1
340
1B
  0
LAYOUT
  5
22
102
{ACAD_REACTORS
330
1A
102
}
330
1A
100
AcDbPlotSettings
  1

  2
DocuWorks Printer
  4
A3
  6

 40
3.174999952316284
 41
3.174999952316284
 42
3.17498779296875
 43
3.17498779296875
 44
297.0106506347656
 45
419.9889831542968
 46
-3.169668555259704
 47
-3.430502295494079
 48
0.0
 49
0.0
140
16820.0
141
11880.0
142
1.0
143
40.0
 70
  3252
 72
     1
 73
     1
 74
     4
  7
cals.ctb
 75
    24
147
0.025
 76
     1
 77
     2
 78
   300
148
0.0
149
0.0
100
AcDbLayout
  1
Model
 70
     1
 71
     0
 10
0.0
 20
0.0
 11
12.0
 21
9.0
 12
0.0
 22
0.0
 32
0.0
 14
0.0
 24
0.0
 34
0.0
 15
0.0
 25
0.0
 35
0.0
146
0.0
 13
0.0
 23
0.0
 33
0.0
 16
1.0
 26
0.0
 36
0.0
 17
0.0
 27
1.0
 37
0.0
 76
     0
330
1F
1001
ACAD_PSEXT
1000
DocuWorks Printer
1000
DocuWorks Printer Driver
1000
DocuWorks Port
1000

1070
     0
  0
LAYOUT
  5
1E
102
{ACAD_REACTORS
330
1A
102
}
330
1A
100
AcDbPlotSettings
  1

  2
Canon LaserShot A309G2 LIPS3
  4

  6

 40
0.0
 41
0.0
 42
0.0
 43
0.0
 44
0.0
 45
0.0
 46
0.0
 47
0.0
 48
0.0
 49
0.0
140
0.0
141
0.0
142
1.0
143
1.0
 70
   688
 72
     0
 73
     0
 74
     5
  7

 75
    16
147
1.0
 76
     0
 77
     2
 78
   300
148
0.0
149
0.0
100
AcDbLayout
  1
ﾚｲｱｳﾄ1
 70
     1
 71
     1
 10
0.0
 20
0.0
 11
420.0
 21
297.0
 12
0.0
 22
0.0
 32
0.0
 14
1.000000000000000E+20
 24
1.000000000000000E+20
 34
1.000000000000000E+20
 15
-1.000000000000000E+20
 25
-1.000000000000000E+20
 35
-1.000000000000000E+20
146
0.0
 13
0.0
 23
0.0
 33
0.0
 16
1.0
 26
0.0
 36
0.0
 17
0.0
 27
1.0
 37
0.0
 76
     0
330
1B
  0
MATERIAL
  5
EB42
102
{ACAD_XDICTIONARY
360
EB43
102
}
102
{ACAD_REACTORS
330
1A4
102
}
330
1A4
100
AcDbMaterial
  1
Global
  0
MLINESTYLE
  5
18
102
{ACAD_REACTORS
330
17
102
}
330
17
100
AcDbMlineStyle
  2
STANDARD
 70
     0
  3

 62
   256
 51
90.0
 52
90.0
 71
     2
 49
0.5
 62
   256
  6
BYLAYER
 49
-0.5
 62
   256
  6
BYLAYER
  0
ACDBPLACEHOLDER
  5
F
102
{ACAD_REACTORS
330
E
102
}
330
E
  0
TABLESTYLE
  5
1A7
102
{ACAD_REACTORS
330
1A6
102
}
330
1A6
100
AcDbTableStyle
  3
Standard
 70
     0
 71
     0
 40
1.5
 41
1.5
280
     0
281
     0
  7
Standard
140
4.5
170
     2
 62
     0
 63
     7
283
     0
274
    -2
284
     1
 64
     0
275
    -2
285
     1
 65
     0
276
    -2
286
     1
 66
     0
277
    -2
287
     1
 67
     0
278
    -2
288
     1
 68
     0
279
    -2
289
     1
 69
     0
  7
Standard
140
6.0
170
     5
 62
     0
 63
     7
283
     0
274
    -2
284
     1
 64
     0
275
    -2
285
     1
 65
     0
276
    -2
286
     1
 66
     0
277
    -2
287
     1
 67
     0
278
    -2
288
     1
 68
     0
279
    -2
289
     1
 69
     0
  7
Standard
140
4.5
170
     5
 62
     0
 63
     7
283
     0
274
    -2
284
     1
 64
     0
275
    -2
285
     1
 65
     0
276
    -2
286
     1
 66
     0
277
    -2
287
     1
 67
     0
278
    -2
288
     1
 68
     0
279
    -2
289
     1
 69
     0
  0
DICTIONARYVAR
  5
1B8
102
{ACAD_REACTORS
330
1B7
102
}
330
1B7
100
DictionaryVariables
280
     0
  1
STANDARD
  0
DICTIONARYVAR
  5
4EF4
102
{ACAD_REACTORS
330
1B7
102
}
330
1B7
100
DictionaryVariables
280
     0
  1
1
  0
DICTIONARYVAR
  5
4EF5
102
{ACAD_REACTORS
330
1B7
102
}
330
1B7
100
DictionaryVariables
280
     0
  1

  0
DICTIONARY
  5
EB43
330
EB42
100
AcDbDictionary
280
     1
281
     1
  3
ACAD_XREC_ROUNDTRIP
360
EB44
  0
XRECORD
  5
EB44
102
{ACAD_REACTORS
330
EB43
102
}
330
EB43
100
AcDbXrecord
280
     1
102
MATERIAL
148
0.0
149
0.0
149
0.0
 93
        0
 94
       63
282
     0
 72
     1
 77
     1
171
     1
175
     1
179
     1
273
     0
  0
ENDSEC
  0
EOF
